Людина-павук: Повернення додому / Spider-Man. Homecoming (2017) 1080p 3D [Half OverUnder] Ukr/Eng | Sub Ukr/Eng

Нові коментарі

Нова тема   Відповісти
Автор Повідомлення
RushPill 
Новенький


З нами з: 12.01.16
Востаннє: 23.09.18
Повідомлень: 11

2017-11-07 00:24  
Людина-павук: Повернення додому / Spider-Man. Homecoming (2017) 1080p 3D [Half OverUnder] Ukr/Eng | Sub Ukr/Eng
Людина-павук: Повернення додому / Spider-Man. Homecoming (2017) 1080p 3D [Half OverUnder] Ukr/Eng | Sub Ukr/Eng


Жанр: фантастика, бойовик, пригодницький
Країна: США



Кінокомпанія: Columbia Pictures, Marvel Studios, Pascal Pictures
Режисер: Джонатан Вотс / Jon Watts
Актори: Том Голланд / Tom Holland, Майкл Кітон / Michael Keaton, Роберт Дауні (мол.) / Robert Downey Jr., Маріса Томей / Marisa Tomei, Джон Фавро / Jon Favreau, Зендея Коулман / Zendaya Coleman, Дональд Гловер / Donald Glover, Джейкоб Баталон / Jacob Batalon, Лора Гарієр / Laura Harrier, Ґвінет Пелтроу / Gwyneth Paltrow, Тоні Револорі / Tony Revolori та інші

Сюжет:
Після історичної зустрічі з командою Месників Пітер Паркер повертається додому, намагаючись повернутись до нормального життя підлітка під опікою своєї тітки Мей. Але тепер за Пітером наглядає ще дещо... Тоні Старк бачив Людину-Павука у справі і повинен стати його наставником. Коли новий лиходій Стерв'ятник загрожує знищити все, що дороге Пітеру, приходить час довести всім, що таке справжній супергерой.


Рейтинг MPAA: PG-13 - дітям до 13 років перегляд не бажаний
Вікова категорія: 12+

Тривалість:
02:13:27
Якість: 1080p 3D [Half OverUnder]
Відео:
кодек: /AVC
розмір кадру: 1920x1080
бітрейт: 10000 kbps
Відео для перегляду на 3D обладнанні!

Аудіо # 1:
мова: українська
переклад: професійний дубльований
кодек: 5.1
бітрейт: 448 kbps

Аудіо # 2:
мова: англійська
переклад: оригінал
кодек: 5.1
бітрейт: 1509 kbps

Субтитри # 1-2:
мова: українська (форсовані, повні)
тип: програмні (м'які)
формат: *.srt

Субтитри # 3-4:
мова: англійська (форсовані, повні)
тип: програмні (м'які)
формат: *.srt
Info

Код:
General
Unique ID                                : 246076898771407607929564340162285401572 (0xB920AFD1E6925411BE756FC6B7C5F5E4)
Complete name                            : G:\HDFilms\Marvel\Phase 3\Spider-Man. Homecoming (2017) [Ukr,Eng sub.Ukr,Eng] Remux 1080p 3D [Half OverUnder].
Format                                   :
Format version                           : Version 4 / Version 2
File size                                : 11.1 GiB
Duration                                 : 2 h 13 min
Overall bit rate                         : 12.0 Mb/s
Movie name                               : Spider-Man: Homecoming (2017)
Encoded date                             : UTC 2017-11-07 18:26:47
Writing application                      : v17.0.0 ('Be Ur Friend') 64-bit
Writing library                          : libebml v1.3.5 + v1.4.8
Cover                                    : Yes
Attachments                              : cover.jpg

Video
ID                                       : 1
Format                                   : AVC
Format/Info                              : Advanced Video Codec
Format profile                           : [email protected]
Format settings                          : CABAC / 4 Ref Frames
Format settings, CABAC                   : Yes
Format settings, RefFrames               : 4 frames
Codec ID                                 : V_MPEG4/ISO/AVC
Duration                                 : 2 h 13 min
Bit rate                                 : 10 000 kb/s
Width                                    : 1 920 pixels
Height                                   : 1 080 pixels
Display aspect ratio                     : 16:9
Frame rate mode                          : Constant
Frame rate                               : 23.976 (24000/1001) FPS
Color space                              : YUV
Chroma subsampling                       : 4:2:0
Bit depth                                : 8 bits
Scan type                                : Progressive
Bits/(Pixel*Frame)                       : 0.201
Stream size                              : 9.32 GiB (84%)
Writing library                          : core 152 r2851M ba24899
Encoding settings                        : cabac=1 / ref=4 / deblock=1:-3:-3 / analyse=0x3:0x113 / me=umh / subme=10 / psy=1 / psy_rd=1.05:0.10 / mixed_ref=1 / me_range=24 / chroma_me=1 / trellis=2 / 8x8dct=1 / cqm=0 / deadzone=21,11 / fast_pskip=0 / chroma_qp_offset=-3 / threads=5 / lookahead_threads=1 / sliced_threads=0 / nr=0 / decimate=1 / interlaced=0 / bluray_compat=0 / constrained_intra=0 / bframes=6 / b_pyramid=2 / b_adapt=2 / b_bias=0 / direct=1 / weightb=1 / open_gop=0 / weightp=2 / keyint=230 / keyint_min=23 / scenecut=40 / intra_refresh=0 / rc=2pass / mbtree=0 / bitrate=10000 / ratetol=1.0 / qcomp=0.70 / qpmin=3 / qpmax=69 / qpstep=4 / cplxblur=20.0 / qblur=0.5 / ip_ratio=1.40 / pb_ratio=1.30 / aq=2:1.00
Default                                  : Yes
Forced                                   : No
Color range                              : Limited
Color primaries                          : BT.709
Transfer characteristics                 : BT.709
Matrix coefficients                      : BT.709

Audio #1
ID                                       : 2
Format                                   : AC-3
Format/Info                              : Audio Coding 3
Codec ID                                 : A_AC3
Duration                                 : 2 h 13 min
Bit rate mode                            : Constant
Bit rate                                 : 448 kb/s
Channel(s)                               : 6 channels
Channel positions                        : Front: L C R, Side: L R, LFE
Sampling rate                            : 48.0 kHz
Frame rate                               : 31.250 FPS (1536 SPF)
Bit depth                                : 16 bits
Compression mode                         : Lossy
Stream size                              : 428 MiB (4%)
Title                                    : 5.1 @ 448 kbps
Language                                 : Ukrainian
Service kind                             : Complete Main
Default                                  : Yes
Forced                                   : Yes

Audio #2
ID                                       : 3
Format                                   :
Format/Info                              : Digital Theater Systems
Codec ID                                 : A_DTS
Duration                                 : 2 h 13 min
Bit rate mode                            : Constant
Bit rate                                 : 1 509 kb/s
Channel(s)                               : 6 channels
Channel positions                        : Front: L C R, Side: L R, LFE
Sampling rate                            : 48.0 kHz
Frame rate                               : 93.750 FPS (512 SPF)
Bit depth                                : 24 bits
Compression mode                         : Lossy
Stream size                              : 1.41 GiB (13%)
Title                                    : Original
Language                                 : English
Default                                  : No
Forced                                   : No

Text #1
ID                                       : 4
Format                                   : UTF-8
Codec ID                                 : S_TEXT/UTF8
Codec ID/Info                            : UTF-8 Plain Text
Duration                                 : 1 h 59 min
Bit rate                                 : 1 b/s
Count of elements                        : 26
Stream size                              : 1.27 KiB (0%)
Title                                    : Forced
Language                                 : Ukrainian
Default                                  : Yes
Forced                                   : Yes

Text #2
ID                                       : 5
Format                                   : UTF-8
Codec ID                                 : S_TEXT/UTF8
Codec ID/Info                            : UTF-8 Plain Text
Duration                                 : 2 h 12 min
Bit rate                                 : 83 b/s
Count of elements                        : 1815
Stream size                              : 81.6 KiB (0%)
Title                                    : Full
Language                                 : Ukrainian
Default                                  : No
Forced                                   : No

Text #3
ID                                       : 6
Format                                   : UTF-8
Codec ID                                 : S_TEXT/UTF8
Codec ID/Info                            : UTF-8 Plain Text
Duration                                 : 5 s 130 ms
Bit rate                                 : 79 b/s
Count of elements                        : 2
Stream size                              : 51.0 Bytes (0%)
Title                                    : Forced
Language                                 : English
Default                                  : No
Forced                                   : No

Text #4
ID                                       : 7
Format                                   : UTF-8
Codec ID                                 : S_TEXT/UTF8
Codec ID/Info                            : UTF-8 Plain Text
Duration                                 : 2 h 12 min
Bit rate                                 : 64 b/s
Count of elements                        : 1790
Stream size                              : 62.3 KiB (0%)
Title                                    : Full
Language                                 : English
Default                                  : No
Forced                                   : No

Menu
00:00:00.000                             : en:1
00:05:33.083                             : en:2
00:14:23.279                             : en:3
00:20:49.999                             : en:4
00:26:18.243                             : en:5
00:36:26.976                             : en:6
00:46:02.926                             : en:7
00:54:39.192                             : en:8
01:05:09.280                             : en:9
01:12:02.276                             : en:10
01:20:19.189                             : en:11
01:29:40.542                             : en:12
01:36:55.894                             : en:13
01:44:43.152                             : en:14
01:50:30.249                             : en:15
01:57:52.566                             : en:16
Скріншоти




Подяка: Компіляція українських форсованих субтитрів: Ash61 та igor911, постер - Ham_R, українська доріжка - Electroz

Джерело: &


 Трекер:    Зареєстрований   

Завантажити / скачати фільм українською



відео для новачків



 Зареєстрований:   2017-11-08 19:59
 Розмір:   11.15 GB 
 Оцінка фільму:   7.1/10 (Голосів: 7)
   
Electroz 
Відео Гуртом - підтримка та поширення
Відео Гуртом - підтримка та поширення


З нами з: 18.09.14
Востаннє: 24.09.18
Повідомлень: 2961

2017-11-07 00:30  
RushPill написано:

кодек: 2.0
бітрейт: 192 kbps

В інших релізах звук 5.1

Додано через 2 хвилини 11 секунд:

RushPill написано:
Remux 1080p 3D

1080p 3D [Half OverUnder]

11FrYkT 
Модератор відео


З нами з: 20.02.11
Востаннє: 24.09.18
Повідомлень: 5039

2017-11-07 10:30  
RushPill написано:
Remux 1080p 3D


1080p 3D [Half OverUnder]

Цитата:
Аудіо # 1:
мова: українська
переклад: професійний дубльований
кодек: 2.0
бітрейт: 192 kbps

Є доріжка з Блура, замініть, також додайте форсовані і повні українські субтитри

RushPill 
Новенький


З нами з: 12.01.16
Востаннє: 23.09.18
Повідомлень: 11

2017-11-08 01:04  
11FrYkT написано:
1080p 3D [Half OverUnder]

додано
11FrYkT написано:
Є доріжка з Блура, замініть, також додайте форсовані і повні українські субтитри

замінено/додано

Реліз оновлено!


Замінено доріжку на повністю дубльовану та додані українські субтитри

igor911 
Відео Гуртом
Відео Гуртом


З нами з: 18.01.08
Востаннє: 24.09.18
Повідомлень: 11070

2017-11-08 11:01  
RushPill написано:
Remux 1080p 3D

це не ремукс, має бути
11FrYkT написано:
1080p 3D [Half OverUnder]

RushPill 
Новенький


З нами з: 12.01.16
Востаннє: 23.09.18
Повідомлень: 11

2017-11-08 20:00  
igor911 написано:
1080p 3D [Half OverUnder

виправив

senlon 
Новенький


З нами з: 01.06.08
Востаннє: 21.08.18
Повідомлень: 3

2017-11-16 21:45  
а буде з вертикальною стереопараю side by side?
ivants 
Новенький


З нами з: 05.11.11
Востаннє: 21.09.18
Повідомлень: 9

2017-11-21 14:39  
Хотів вибрати 3D телевізор, це єдине що приваблювало перед переглядом на ПК, так виявилося, що всі основні виробники згорнули виробництво 3D телевізорів. Шкода, через рік-два зникнуть 3D релізи, напевно
Ваш часовий пояс: GMT + 2 Години

Нова тема   Відповісти