Безсоромна мандрівка / Snatched (2017)

Нові коментарі

Нова тема   Відповісти
Автор Повідомлення
Anonymous 







2017-11-05 23:26  
Безсоромна мандрівка / Snatched (2017)



Жанр: бойовик, комедія
Країна: США



Кінокомпанія: 20th Century Fox, Chernin Entertainment, Feigco Entertainment
Режисер: Джонатан Левін / Jonathan Levine
Актори: Емі Шумер / Amy Schumer, Ґолді Гоун / Goldie Hawn, Айк Барінхолц / Ike Barinholtz, Оскар Хаенада / Óscar Jaenada, Кристофер Мелоні / Christopher Meloni, Рендолл Парк / Randall Park, Джоан Кьюсак / Joan Cusack, Ванда Сайкс / Wanda Sykes, Том Бейтмен / Tom Bateman, Башир Салахуддін / Bashir Salahuddin та інші

Сюжет:
До цієї поїздки Емілі рідко проводила час разом зі своєю матір'ю Ліндою. Але Емілі щойно кинув хлопець, і на руках залишилися квитки на двох до Південної Америки. Не пропадати ж добру. Тим більше дівчині не завадить розвіятися. Але приїхавши на курорт, мати і дочка дізнаються одна про одну багато нового. А коли їх викрадуть, то вже ніколи буде соромитися. Втеча була б хорошим порятунком, але вони посеред джунглів і зовсім не знайомі ані з місцевою культурою, ані з мовою.
Офіційний український трейлер:

Рейтинг MPAA: R - особам до 17 років обов'язкова присутність батьків або дорослого опікуна
Вікова категорія: 16+
Тривалість: 01:30:30
Якість:
Відео:
кодек:
розмір кадру: 720х304
бітрейт: 1853 кб/с

Аудіо:
мова: українська
переклад: професійний дубльований | студія Postmodern
кодек: 5.1
бітрейт: 384 кб/с
Info
Код:
General
Complete name               : Snatched (2017) [Ukr] [Hurtom].avi
Format                      : AVI
Format/Info                 : Audio Video Interleave
File size                   : 1.42 GiB
Duration                    : 1 h 30 min
Overall bit rate            : 2 246 kb/s
Movie name                  : Безсоромна мандрівка / Snatched (2017) [Ukr] [Hurtom]
Genre                       : бойовик, комедія
Recorded date               : 20.09.2019
Writing application         : VirtualDubModUkr 1.5.10.2 (build 2542/release)
Writing library             : VirtualDubMod build 2542/release
Comment                     : https://toloka.to/t85062

Video
ID                          : 0
Format                      : MPEG-4 Visual
Format profile              : Advanced [email protected]
Format settings             : BVOP1 / Custom Matrix
Format settings, BVOP       : 1
Format settings, QPel       : No
Format settings, GMC        : No warppoints
Format settings, Matrix     : Custom
Codec ID                    :
Codec ID/Hint               :
Duration                    : 1 h 30 min
Bit rate                    : 1 853 kb/s
Width                       : 720 pixels
Height                      : 304 pixels
Display aspect ratio        : 2.35:1
Frame rate                  : 23.976 (24000/1001) FPS
Color space                 : YUV
Chroma subsampling          : 4:2:0
Bit depth                   : 8 bits
Scan type                   : Progressive
Compression mode            : Lossy
Bits/(Pixel*Frame)          : 0.353
Stream size                 : 1.17 GiB (82%)
Writing library             : 73

Audio
ID                          : 1
Format                      : AC-3
Format/Info                 : Audio Coding 3
Commercial name             : Dolby Digital
Codec ID                    : 2000
Duration                    : 1 h 30 min
Bit rate mode               : Constant
Bit rate                    : 384 kb/s
Channel(s)                  : 6 channels
Channel layout              : L R C LFE Ls Rs
Sampling rate               : 48.0 kHz
Frame rate                  : 31.250 FPS (1536 SPF)
Compression mode            : Lossy
Stream size                 : 249 MiB (17%)
Alignment                   : Split across interleaves
Interleave, duration        : 42  ms (1.00 video frame)
Interleave, preload duratio : 500  ms
Title                       : Ukr Dub [Postmodern, іTunеs]
Service kind                : Complete Main
Ще скріншоти:
Джерело: &

20.09.2019 реліз оновлено - українську доріжку замінено зі стерео на 5.1


 Трекер:    Зареєстрований   

Завантажити / скачати фільм українською



відео для новачків



 Зареєстрований:   2019-09-20 21:51
 Розмір:   1.42 GB 
 Оцінка фільму:   6.6/10 (Голосів: 88)
 ЗАЛИШАЙТЕСЬ ЯКОМОГА ДОВШЕ НА РОЗДАЧІ! ЗАВАНТАЖИВ САМ - ДАЙ ЗАВАНТАЖИТИ ІНШИМ!
   
atman_valery 
Свій


З нами з: 12.01.11
Востаннє: 22.10.19
Повідомлень: 72

2017-11-07 21:50  
не витрачайте часу. лайно. (моя думка)
elephant1k 
Свій


З нами з: 04.05.16
Востаннє: 22.10.19
Повідомлень: 54

2017-11-08 02:08  
дружина реготала. а я гадаю що треш.
R7D7 
Новенький


З нами з: 17.05.16
Востаннє: 22.10.19
Повідомлень: 2

2017-11-08 12:18  
лайно повне
Sllavko 
Поважний учасник


З нами з: 10.06.12
Востаннє: 16.10.19
Повідомлень: 165

2017-11-09 21:11  
можна дивитися.. не сумував.. українське озвучення лайки на висоті)))
chuknagumda 
Поважний учасник


З нами з: 29.12.08
Востаннє: 22.10.19
Повідомлень: 198

2017-11-11 00:36  
а рейтинг не завищений?
Victor_Scythian 
VIP


З нами з: 06.01.17
Востаннє: 22.10.19
Повідомлень: 286

2017-11-11 20:20  
Це капець - "кіно" для ЗБОЧЕНЦІВ
taras000 
Новенький


З нами з: 09.05.12
Востаннє: 21.10.19
Повідомлень: 3

2017-11-12 11:52  
дурне кіно. Думав, що норм, але не тут то було))
RR2094 
Частий відвідувач


З нами з: 13.03.17
Востаннє: 20.10.19
Повідомлень: 25

2017-11-24 02:18  
Де бачите цю актрису (жирна) - сміливо пропускайте, зекономите 2 години життя
Тарас1994 
Новенький


З нами з: 20.09.13
Востаннє: 22.10.19
Повідомлень: 22

2018-04-29 13:00  
феміністичне гівно
andriy_nv 
VIP


З нами з: 27.06.08
Востаннє: 22.10.19
Повідомлень: 934

2018-12-11 19:19  
на один раз
Alexander_S 
Свій


З нами з: 06.02.09
Востаннє: 16.10.19
Повідомлень: 131

2018-12-12 23:46  
Фільм, як груди старої (дуже) жінки.
dreamer 
VIP


З нами з: 10.05.08
Востаннє: 22.10.19
Повідомлень: 522

2019-01-10 16:30  
щось таке...
Anonymous 







2019-09-20 21:52  
Реліз оновлено - українську доріжку замінено зі стерео на 5.1
Ваш часовий пояс: GMT + 2 Години

Нова тема   Відповісти