Ілюзіоніст / The Illusionist (2006) 1080p 3xUkr/Eng | Sub Eng

Нові коментарі

Нова тема   Відповісти
Автор Повідомлення
Argentum 
VIP


З нами з: 25.09.11
Востаннє: 19.01.21
Повідомлень: 274

2017-11-05 10:53  
Ілюзіоніст / The Illusionist (2006) 1080p 3xUkr/Eng | Sub Eng

Ілюзіоніст / The Illusionist (2006) 1080p 3xUkr/Eng | Sub Eng


Жанр: трилер, детектив, мелодрама, містерія
Країна: США, Чехія



Кінокомпанія: Bull's Eye Entertainment, Bob Yari Productions, Contagious Entertainment, Michael London Productions, Stillking Films
Режисер: Ніл Берґер
Актори: Едвард Нортон, Пол Джаматті, Джессіка Біл, Руфус Сьюелл, Едді Марсан, Джейк Вуд

Сюжет:
На початку 20 сторіччя у Відні з'являється незнайомець, що називає себе ілюзіоністом Айзенгаймом. Він настільки вправний, що його вистави відвідують все більше і більше людей. Слава доходить і до кронпринца Леопольда і він вирішує відвідати виставу разом зі своєю нареченою Софією


Тривалість: 01:48:57
Якість: 1080p
Відео:
кодек:
розмір кадру: 1916 х 1080
бітрейт: 12500 кб/с

Аудіо # 1:
мова: українська
переклад: багатоголосий закадровий
кодек: 2.0
бітрейт: 192 кб/с

Аудіо # 2:
мова: українська
переклад: багатоголосий закадровий
кодек: 2.0
бітрейт: 192 кб/с

Аудіо # 3:
мова: українська
переклад: багатоголосий закадровий
кодек: 2.0
бітрейт: 192 кб/с

Аудіо # 4:
мова: англійська
переклад: оригінал
кодек: 5.1
бітрейт: 448 кб/с

Субтитри:
мова: англійська
тип: програмні (м'які)
формат: *.srt
Info
General
Unique ID : 260937687465460743750457194356115527215 (0xC44EC54571CA4F38F4A6489032EC562F)
Complete name : /home/jacks/Videos/My/The Illusionist/The Illusionist (2006) [Ukr,Eng] 1080p [Hurtom].
Format :
Format version : Version 4 / Version 2
File size : 10.3 GiB
Duration : 1 h 48 min
Overall bit rate : 13.5 Mb/s
Movie name : Release for HURTOM.COM
Encoded date : UTC 2017-11-05 06:57:27
Writing application : v17.0.0 ('Be Ur Friend') 64-bit
Writing library : libebml v1.3.5 + v1.4.8
Attachments : illusionist_160_550.jpg

Video
ID : 1
Format : AVC
Format/Info : Advanced Video Codec
Format profile : [email protected]
Format settings : CABAC / 4 Ref Frames
Format settings, CABAC : Yes
Format settings, ReFrames : 4 frames
Codec ID : V_MPEG4/ISO/AVC
Duration : 1 h 48 min
Bit rate : 12.5 Mb/s
Width : 1 916 pixels
Height : 1 080 pixels
Display aspect ratio : 16:9
Frame rate mode : Constant
Frame rate : 23.976 (24000/1001) FPS
Color space : YUV
Chroma subsampling : 4:2:0
Bit depth : 8 bits
Scan type : Progressive
Bits/(Pixel*Frame) : 0.252
Stream size : 9.51 GiB (92%)
Title : AVC @ 12500 kbps
Writing library : core 148 r2795 aaa9aa8
Encoding settings : cabac=1 / ref=4 / deblock=1:-3:-3 / analyse=0x3:0x133 / me=umh / subme=10 / psy=1 / psy_rd=1,00:10,00 / mixed_ref=1 / me_range=32 / chroma_me=1 / trellis=2 / 8x8dct=1 / cqm=0 / deadzone=21,11 / fast_pskip=0 / chroma_qp_offset=-4 / threads=12 / lookahead_threads=2 / sliced_threads=0 / nr=0 / decimate=1 / interlaced=0 / bluray_compat=0 / constrained_intra=0 / bframes=8 / b_pyramid=2 / b_adapt=2 / b_bias=0 / direct=3 / weightb=1 / open_gop=0 / weightp=2 / keyint=240 / keyint_min=24 / scenecut=40 / intra_refresh=0 / rc_lookahead=50 / rc=2pass / mbtree=1 / bitrate=12500 / ratetol=1,0 / qcomp=0,60 / qpmin=0 / qpmax=69 / qpstep=4 / cplxblur=20,0 / qblur=0,5 / vbv_maxrate=62500 / vbv_bufsize=78125 / nal_hrd=none / filler=0 / ip_ratio=1,40 / aq=1:1,00
Default : Yes
Forced : No
Color range : Limited
Color primaries : BT.709
Transfer characteristics : BT.709
Matrix coefficients : BT.709

Audio #1
ID : 2
Format : AC-3
Format/Info : Audio Coding 3
Codec ID : A_AC3
Duration : 1 h 48 min
Bit rate mode : Constant
Bit rate : 192 kb/s
Channel(s) : 2 channels
Channel positions : Front: L R
Sampling rate : 48.0 kHz
Frame rate : 31.250 FPS (1536 SPF)
Bit depth : 16 bits
Compression mode : Lossy
Stream size : 150 MiB (1%)
Title : 2.0 @ 192 kbps # CINE+
Language : Ukrainian
Service kind : Complete Main
Default : Yes
Forced : No

Audio #2
ID : 3
Format : AC-3
Format/Info : Audio Coding 3
Codec ID : A_AC3
Duration : 1 h 48 min
Bit rate mode : Constant
Bit rate : 192 kb/s
Channel(s) : 2 channels
Channel positions : Front: L R
Sampling rate : 48.0 kHz
Frame rate : 31.250 FPS (1536 SPF)
Bit depth : 16 bits
Compression mode : Lossy
Stream size : 150 MiB (1%)
Title : 2.0 @ 192 kbps # K1
Language : Ukrainian
Service kind : Complete Main
Default : No
Forced : No

Audio #3
ID : 4
Format : AC-3
Format/Info : Audio Coding 3
Codec ID : A_AC3
Duration : 1 h 48 min
Bit rate mode : Constant
Bit rate : 192 kb/s
Channel(s) : 2 channels
Channel positions : Front: L R
Sampling rate : 48.0 kHz
Frame rate : 31.250 FPS (1536 SPF)
Bit depth : 16 bits
Compression mode : Lossy
Stream size : 150 MiB (1%)
Title : 2.0 @ 192 kbps # 1+1
Language : Ukrainian
Service kind : Complete Main
Default : No
Forced : No

Audio #4
ID : 5
Format : AC-3
Format/Info : Audio Coding 3
Codec ID : A_AC3
Duration : 1 h 48 min
Bit rate mode : Constant
Bit rate : 448 kb/s
Channel(s) : 6 channels
Channel positions : Front: L C R, Side: L R, LFE
Sampling rate : 48.0 kHz
Frame rate : 31.250 FPS (1536 SPF)
Bit depth : 16 bits
Compression mode : Lossy
Stream size : 349 MiB (3%)
Title : 5.1 @ 448 kbps
Language : English
Service kind : Complete Main
Default : No
Forced : No

Text
ID : 6
Format : UTF-8
Codec ID : S_TEXT/UTF8
Codec ID/Info : UTF-8 Plain Text
Duration : 1 h 39 min
Bit rate : 46 b/s
Count of elements : 894
Stream size : 33.6 KiB (0%)
Title : Full
Language : English
Default : No
Forced : No
Скріншоти




За запис звуку з ТБ подяка панам Sando7 та POMEO, за синхронізацію - п.taraskill1
За виготовлення постеру подяка пану hellforces

Джерело: &
Особиста оцінка: 8 - мені сподобалося


 Трекер:    Зареєстрований   

Завантажити / скачати фільм українською



відео для новачків



 Зареєстрований:   2017-11-05 10:53
 Розмір:   10.29 GB 
 Оцінка фільму:   9.3/10 (Голосів: 19)
   
Інші релізи
SHEVA2018 
Свій


З нами з: 24.09.18
Востаннє: 18.01.21
Повідомлень: 52

2021-01-07 19:29  
Хороший фільм! Мені сподобався. Шкода, що немає дубляжу
Ваш часовий пояс: GMT + 2 Години

Нова тема   Відповісти