Термінатор: Спасіння прийде [Режисерська версія] / Terminator Salvation [Director's Cut] (2009) Remux 1080p Ukr/Eng | Sub Ukr/Eng

Нові коментарі

Нова тема   Відповісти
Автор Повідомлення
el_f_ 
Новенький


З нами з: 03.01.16
Востаннє: 23.09.20
Повідомлень: 21

2017-11-04 00:40  
Термінатор: Спасіння прийде [Режисерська версія] / Terminator Salvation [Director's Cut] (2009) Remux 1080p Ukr/Eng | Sub Ukr/Eng

Термінатор: Спасіння прийде [Режисерська версія] / Terminator Salvation [Director's Cut] (2009) Remux 1080p Ukr/Eng | Sub Ukr/Eng
Альтернативний український постер



Жанр: фантастика, бойовик
Країна: Німеччина, США, Велика Британія, Італія



Кінокомпанія: The Halcyon Company, IMF Internationale Medien und Film GmbH & Co. Produktions KG, Intermedia Films, Lin Pictures, T Asset Acquisition Company, Wonderland Sound and Vision
Режисер: МакДжі / McG
Актори: Крістіан Бейл / Christian Bale, Сем Вортінгтон / Sam Worthington, Мун Бладгуд / Moon Bloodgood, Гелена Бонем Картер / Helena Bonham Carter, Антон Єльчин / Anton Yelchin, Джадагрейс / Jadagrace, Брайс Даллас Ховард / Bryce Dallas Howard, Коммон / Common, Джейн Александр / Jane Alexander, Майкл Айронсайд / Michael Ironside, Іван Ґвера / Ivan G'Vera, Кріс Браунінг / Chris Browning, Доріан Нконо / Dorian Nkono, Бет Бейлі / Beth Bailey, Віктор Дж. Хо / Victor J. Ho та інші

Сюжет:

2018 рік від Різдва Христового. Джон Коннор - людина, чия доля - очолити Опір електронному мозку Скайнет і армії Термінаторів. Але в майбутнє, з вірою в яке він виріс, вклинюється таємничий Маркус Райт: незнайомець, чиї останні спогади малюють камеру смертників.

Коннор повинен зрозуміти, хто такий Маркус - посланець майбутнього або він просто врятувався з минулого? І на тлі підготовки Скайнетом вирішального удару, Коннор і Райт відправляються в подорож, яка приводить їх в саму серцевину операційної системи, що збунтувалася, де відкривається жахлива таємниця, що криється за потенційним знищенням людства.


Тривалість: 1:57:40
Якість: Remux
Відео:
кодек: VC-1
розмір кадру: 1920 х 1080
бітрейт: 25,6 Мб/с

Аудіо # 1:
мова: українська
переклад: професійний дубльований
Присутні неперекладені моменти (близько 3 хв), присутні субтитри
кодек: 5.1
бітрейт: 384 kb/s

Аудіо # 2:
мова: англійська
переклад: оригінал
кодек: 5.1
бітрейт: 640 kb/s

Джерело озвучення:


Субтитри # 1:
мова: українська (форсовані)
тип: програмні (м'які)
формат: *.srt

Субтитри # 2:
мова: українська (повні)
тип: програмні (м'які)
формат: *.srt

Субтитри # 3:
мова: англійська
тип: програмні (м'які)
формат: *.srt
Info
General
Unique ID : 171276260453605133196584095098771054035 (0x80DA9B9DD42D00F6A0568A7BA3FB9DD3)
Complete name : Terminator Salvation [DirCut] (2009) Remux 1080p [Ukr, Eng].
Format :
Format version : Version 4 / Version 2
File size : 21.9 GiB
Duration : 1 h 57 min
Overall bit rate : 26.6 Mb/s

Video
ID : 1
Format : VC-1
Format profile : [email protected]
Codec ID : V_MS/VFW/FOURCC / WVC1
Codec ID/Hint : Microsoft
Duration : 1 h 57 min
Bit rate : 25.6 Mb/s
Width : 1 920 pixels
Height : 1 080 pixels
Display aspect ratio : 16:9
Frame rate mode : Constant
Frame rate : 23.976 (24000/1001) FPS
Color space : YUV
Chroma subsampling : 4:2:0
Bit depth : 8 bits
Scan type : Progressive
Compression mode : Lossy
Bits/(Pixel*Frame) : 0.515
Stream size : 21.0 GiB (96%)
Title : Terminator Salvation [Director's Cut] (2009) Remux 1080p 25604 kbps
Language : Multiple languages
Default : Yes
Forced : Yes

Audio #1
ID : 2
Format : AC-3
Format/Info : Audio Coding 3
Format settings, Endianness : Big
Codec ID : A_AC3
Duration : 1 h 57 min
Bit rate mode : Constant
Bit rate : 384 kb/s
Channel(s) : 6 channels
Channel positions : Front: L C R, Side: L R, LFE
Sampling rate : 48.0 kHz
Frame rate : 31.250 FPS (1536 SPF)
Bit depth : 16 bits
Compression mode : Lossy
Stream size : 323 MiB (1%)
Title : UKR 5.1, 384 kbps
Language : Ukrainian
Service kind : Complete Main
Default : Yes
Forced : Yes

Audio #2
ID : 3
Format : AC-3
Format/Info : Audio Coding 3
Format settings, Endianness : Big
Codec ID : A_AC3
Duration : 1 h 57 min
Bit rate mode : Constant
Bit rate : 640 kb/s
Channel(s) : 6 channels
Channel positions : Front: L C R, Side: L R, LFE
Sampling rate : 48.0 kHz
Frame rate : 31.250 FPS (1536 SPF)
Bit depth : 16 bits
Compression mode : Lossy
Stream size : 538 MiB (2%)
Title : ENG 5.1, 640 kbps
Language : English
Service kind : Complete Main
Default : No
Forced : No

Text #1
ID : 4
Format : UTF-8
Codec ID : S_TEXT/UTF8
Codec ID/Info : UTF-8 Plain Text
Duration : 1 h 38 min
Bit rate : 6 b/s
Count of elements : 90
Stream size : 4.97 KiB (0%)
Title : UKR the forced
Language : Ukrainian
Default : No
Forced : No

Text #2
ID : 5
Format : UTF-8
Codec ID : S_TEXT/UTF8
Codec ID/Info : UTF-8 Plain Text
Duration : 1 h 47 min
Bit rate : 52 b/s
Count of elements : 841
Stream size : 41.1 KiB (0%)
Title : UKR full
Language : Ukrainian
Default : No
Forced : No

Text #3
ID : 6
Format : UTF-8
Codec ID : S_TEXT/UTF8
Codec ID/Info : UTF-8 Plain Text
Duration : 1 h 47 min
Bit rate : 31 b/s
Count of elements : 791
Stream size : 24.6 KiB (0%)
Title : ENG full
Language : English
Default : No
Forced : No
Скріншоти








Джерело: &
Особиста оцінка: 9 - давно не бачив настільки якісне кіно


Золотий реліз (завантажене не впливає на рейтинг)
 Трекер:    Зареєстрований   

Завантажити / скачати фільм українською



відео для новачків



 Зареєстрований:   2017-11-04 00:40
 Розмір:   21.86 GB 
 Оцінка фільму:   10/10 (Голосів: 23)
   
Electroz 
Відео Гуртом - підтримка та поширення
Відео Гуртом - підтримка та поширення


З нами з: 18.09.14
Востаннє: 25.09.20
Повідомлень: 4024

2017-11-04 01:36  
el_f_ написано:
Присутні неперекладені моменти(близько 3 хв) використовуйте субтитри # 1

Потрібно їх робити примусовими.

Romeos 
Новенький


З нами з: 02.02.13
Востаннє: 28.08.20
Повідомлень: 7

2017-11-04 22:12  
не розумію чому це кіно провалилось в прокаті, перші кадри фільму круто зняті оператором...
Українець_з_Умані 
Частий відвідувач


З нами з: 19.09.10
Востаннє: 14.09.20
Повідомлень: 40

2017-11-05 01:50  
тому що, Т без Арні - не те....)
SAKSAGANSKY 
Частий відвідувач


З нами з: 13.05.14
Востаннє: 12.09.20
Повідомлень: 48

2017-11-05 02:54  
Класний фільм, шкода що злили цю історію в 5-й частині в далеке місце Rolleyes (2)
el_f_ 
Новенький


З нами з: 03.01.16
Востаннє: 23.09.20
Повідомлень: 21

2017-11-05 08:14  
Мені здається, що провалилася в прокаті через не дуже хорошу третю частину. Вона мало кому сподобалася і йти на продовження не багато хто хотів. А фільм сам по собі вийшов дуже хорошим, ну як на мене звісно.
Lagolass 
Новенький


З нами з: 14.07.12
Востаннє: 18.08.20
Повідомлень: 3

2017-11-06 12:57  
el_f_ написано:
А фільм сам по собі вийшов дуже хорошим, ну як на мене звісно.

погоджуюсь, я навіть на прокат ходив

ВАВУНЯ 
VIP


З нами з: 30.06.15
Востаннє: 24.09.20
Повідомлень: 297

2017-11-11 19:27  
шкода, але українські форсовані субтитри "вилазять" де треба й де не треба. Sad (1)
[email protected] 
VIP


З нами з: 25.03.17
Востаннє: 24.09.20
Повідомлень: 551

2018-12-17 01:37  
Хороший фільм
Ваш часовий пояс: GMT + 2 Години

Нова тема   Відповісти