Зоряний десант: Зрадник Марса / Starship Troopers: Traitor of Mars (2017) 720p Ukr/Eng

Нові коментарі

Нова тема   Відповісти
Автор Повідомлення
AniUA 
Новенький


З нами з: 12.08.13
Востаннє: 20.12.20
Повідомлень: 5

2017-11-03 14:25  
Зоряний десант: Зрадник Марса / Starship Troopers: Traitor of Mars (2017) 720p Ukr/Eng


Вікове обмеження: 16+


Країна: Японія
Прем'єра: 2017.08.21
Жанр: пригоди, фантастика, бойовик
Студія: STAGE6, LUCENT PICTURES, SOLA Digital Arts

Тривалість: 01год. 27хв. 44сек.

Автор оригіналу: Едвард Ньюмайєр
Режисер: Арамакі Шінджі
Акторський склад: Каспер Ван Дин, Діна Мейєр, ДеРей Девіс, Люсі Крістіан, Джастін Доран, Скот Ґібс, Стефан Крамер Ґлікман, Емілі Невс, Джулієт Сіммонс та інші.

Сюжет:
На колонізованому людьми Марсі життя протікає мирно і спокійно. Але решта Федерації марсіан вважає не надто розумними, і десантник Джон Ріко вже теж починає сумніватися в здібностях свого загону - щоразу команда провалює на симуляторі місії зі знищення колонії жуків. І коли раптово Марс атакують армії вже справжніх гігантських комах, загону новачків доведеться довести, що марсіани таки здатні постояти за рідну планету.

якість:
контейнер:
кодек:
частота кадрів: 23.976 кадрів/сек.
розмір кадру: 1280х720 пікс.
бітрейт: ~2800 кбіт/сек.
бітність: 8 біт.

Аудіо # 1:
мова: українська, двоголосе закадрове озвучення.
кодек: Vorbis
кількість каналів:2.0
бітрейт: 256 кбіт/сек.
частота: 48000 Гц

Аудіо # 2:
мова: англійська, оригінал
кодек:
кількість каналів: 5.1
бітрейт: 1509 кбіт/сек.
частота: 48000 Гц

Джерело релізу та озвучення: AniUA

текст читали: Draakull та Pika
переклад: MadGuy
робота зі звуком: TechnoArt
Скріншоти
MI
General
Unique ID : 199353710256794902330697928696133175181 (0x95FA20C5514667408C90310C9439C78D)
Complete name : D:\Anime\[AniUA]_Starship_Troopers_Traitor_of_Mars_[720p_BDRip]_[Draakull_&_Pika].
Format :
Format version : Version 4 / Version 2
File size : 2.79 GiB
Duration : 1 h 27 min
Overall bit rate mode : Variable
Overall bit rate : 4 545 kb/s
Encoded date : UTC 2017-11-02 10:11:47
Writing application : v7.0.0 ('Where We Going') 64bit built on Jun 9 2014 15:16:27
Writing library : libebml v1.3.0 + v1.4.1

Video
ID : 1
Format : AVC
Format/Info : Advanced Video Codec
Format profile : [email protected]
Format settings, CABAC : Yes
Format settings, ReFrames : 5 frames
Codec ID : V_MPEG4/ISO/AVC
Duration : 1 h 27 min
Bit rate : 2 806 kb/s
Width : 1 280 pixels
Height : 720 pixels
Display aspect ratio : 16:9
Frame rate mode : Constant
Frame rate : 23.976 FPS
Color space : YUV
Chroma subsampling : 4:2:0
Bit depth : 8 bits
Scan type : Progressive
Bits/(Pixel*Frame) : 0.127
Stream size : 1.72 GiB (62%)
Writing library : core 152 r2851 ba24899
Encoding settings : cabac=1 / ref=5 / deblock=1:0:0 / analyse=0x3:0x133 / me=umh / subme=7 / psy=1 / psy_rd=1.00:0.00 / mixed_ref=1 / me_range=16 / chroma_me=1 / trellis=1 / 8x8dct=1 / cqm=0 / deadzone=21,11 / fast_pskip=0 / chroma_qp_offset=-2 / threads=22 / lookahead_threads=3 / sliced_threads=0 / nr=0 / decimate=1 / interlaced=0 / bluray_compat=0 / constrained_intra=0 / bframes=3 / b_pyramid=2 / b_adapt=1 / b_bias=0 / direct=1 / weightb=1 / open_gop=0 / weightp=2 / keyint=250 / keyint_min=23 / scenecut=40 / intra_refresh=0 / rc_lookahead=40 / rc=2pass / mbtree=1 / bitrate=2806 / ratetol=1.0 / qcomp=0.60 / qpmin=0 / qpmax=69 / qpstep=4 / cplxblur=20.0 / qblur=0.5 / ip_ratio=1.40 / aq=1:1.00
Language : English
Default : Yes
Forced : No

Audio #1
ID : 2
Format : Vorbis
Format settings, Floor : 1
Codec ID : A_VORBIS
Duration : 1 h 27 min
Bit rate mode : Variable
Bit rate : 256 kb/s
Channel(s) : 2 channels
Sampling rate : 48.0 kHz
Frame rate : 94.478 FPS (508 spf)
Compression mode : Lossy
Stream size : 142 MiB (5%)
Title : Draakull & Піка
Writing application : REAPER
Writing library : libVorbis (Everywhere) (20100325 (Everywhere))
Language : Ukrainian
Default : Yes
Forced : Yes

Audio #2
ID : 3
Format :
Format/Info : Digital Theater Systems
Mode : 16
Format settings, Endianness : Big
Codec ID : A_DTS
Duration : 1 h 27 min
Bit rate mode : Constant
Bit rate : 1 509 kb/s
Channel(s) : 6 channels
Channel positions : Front: L C R, Side: L R, LFE
Sampling rate : 48.0 kHz
Frame rate : 93.750 FPS (512 spf)
Bit depth : 24 bits
Compression mode : Lossy
Stream size : 947 MiB (33%)
Language : English
Default : No
Forced : No



Якщо вам подобаються наші релізи, і є бажання чимось допомогти проекту, то будемо раді, якщо ви підтримаєте нас фінансово. І, якщо хочете подякувати за якесь конкретне аніме, або форсувати процес озвучення, прохання вказати у коментарі до переказу.
Підтримати/подякувати «AniUA»
Також у нас можна замовити переклад або озвучення
.


Авторський реліз (завантажувати можна без реєстрації)
 Трекер:    Зареєстрований   

Завантажити / скачати мультфільм українською



відео для новачків



 Зареєстрований:   2017-11-03 14:25
 Розмір:   2.79 GB 
 Оцінка мультфільму:   9.8/10 (Голосів: 27)
   
Arch Enemy 
VIP


З нами з: 30.08.12
Востаннє: 05.03.21
Повідомлень: 1945

2017-11-03 14:32  
Пізніше буде версія 1080р з 5.1 звуком.
digmol 
Свій


З нами з: 22.07.15
Востаннє: 04.03.21
Повідомлень: 131

2017-11-03 18:17  
А хіба українською буде не "Зрадник марсу"?
Arch Enemy 
VIP


З нами з: 30.08.12
Востаннє: 05.03.21
Повідомлень: 1945

2017-11-03 18:21  
digmol написано:
А хіба українською буде не "Зрадник марсу"?

Ні, бо це родовий відмінок, а не давальний.

olik78 
Новенький


З нами з: 08.01.15
Востаннє: 04.03.21
Повідомлень: 11

2017-11-05 01:24  
Цитата:

digmol написано:
А хіба українською буде не "Зрадник марсу"?

Ні, бо це родовий відмінок, а не давальний.


+

andrew_laser 
Новенький


З нами з: 25.07.10
Востаннє: 12.02.21
Повідомлень: 1

2017-11-05 19:10  
японці з фантастики зробили аніме.
мультик на любителя

zloydark 
Частий відвідувач


З нами з: 11.05.15
Востаннє: 27.02.21
Повідомлень: 35

2017-11-06 19:21  
Безємоційна озвучка – дуже важко сприймати Sad (1)
eXteSy- 
VIP


З нами з: 06.04.09
Востаннє: 05.03.21
Повідомлень: 2289

2018-03-04 23:17  
Як на мене, значно слабший в сюжетному плані за попередній мульт 2012-го року. Акцент зроблений на бойову частину, але вона дуже вже одноманітна.
7/10

Ваш часовий пояс: GMT + 2 Години

Нова тема   Відповісти