Монстр / Monster (2003) 720p 2xUkr/Eng | Sub Eng

Нові коментарі

Нова тема   Відповісти
Автор Повідомлення
Anonymous 







2017-11-03 10:34  
Монстр / Monster (2003) 720p 2xUkr/Eng | Sub Eng

Монстр / Monster (2003) 720p 2xUkr/Eng | Sub Eng


Жанр: трилер, драма, кримінальний, біографічний
Країна: США, Німеччина

Оскар, Золотий глобус, премії Берлінського кінофестивалю та Гільдії акторів за найкращу жіночу роль (Шарліз Терон)




Кінокомпанія: Media 8 Entertainment, Newmarket Films, DEJ Productions, K/W Productions, Denver and Delilah Productions, VIP 2 Medienfonds, MDP Worldwide, Zodiac Productions Inc.
Режисер: Петті Дженкінс / Patty Jenkins
Актори: Шарліз Терон / Charlize Theron, Крістіна Річчі / Christina Ricci, Брюс Дерн / Bruce Dern, Лі Тергезен / Lee Tergesen, Енні Корлі / Annie Corley, Прюітт Тейлор Вінс / Pruitt Taylor Vince, Марко Ст. Джон / Marco St. John, Джим Р. Коулмен / Jim R. Coleman та інші

Сюжет:
Любовна історія, що розгортається на тлі жахливих злочинів двох знедолених — повії-бродяжки Ворнос, що вбиває багатьох зі своїх клієнтів — «джонні», і Селбі Волл, відісланої батьками до тітки у Флориду, щоб "вилікувати від лесбійських схильностей".


Рейтинг MPAA: R - особам до 17 років обов'язкова присутність батьків або дорослого опікуна
Вікова категорія: 16+
Тривалість: 01:48:48
Якість: 720p
Відео:
кодек:
розмір кадру: 1280x694
бітрейт: 7570 кб/с [crf=19]

Аудіо # 1:
мова: українська
переклад: багатоголосий закадровий
кодек: 2.0 [стерео]
бітрейт: 192 кб/с

Аудіо # 2:
мова: українська
переклад: багатоголосий закадровий
кодек: 2.0 [стерео]
бітрейт: 192 кб/с

Аудіо # 2:
мова: англійська
переклад: оригінал
кодек: 5.1
бітрейт: 448 кб/с

Субтитри:
мова: англійська
тип: програмні (м'які)
формат: *.srt

Збережено оригінальні розділи, як на Blu-ray
Info та log
Код:

Complete name               : Monster (2003) [2xUkr,Eng sub.Eng] 720p [Hurtom].
Format                      :
Format version              : Version 4
File size                   : 6.39 GiB
Duration                    : 1 h 48 min
Overall bit rate            : 8 405 kb/s
Movie name                  : Монстр / Monster (2003) [2xUkr,Eng sub.Eng] 720p [Hurtom]
Released date               : 2003
Encoded date                : UTC 2019-04-25 18:47:45
Writing application         : v33.1.0 ('Primrose') 64-bit
Writing library             : libebml v1.3.7 + v1.5.0
Cover                       : Yes
Comment                     : http://www.imdb.com/title/tt0340855/
Attachments                 : cover.jpg
ARTIST                      : Шарліз Терон / Charlize Theron, Крістіна Річчі / Christina Ricci, Брюс Дерн / Bruce Dern, Лі Тергезен / Lee Tergesen, Енні Корлі / Annie Corley, Прюітт Тейлор Вінс / Pruitt Taylor Vince, Марко Ст. Джон / Marco St. John, Джим Р. Коулмен / Jim R. Coleman та інші
DIRECTOR                    : Петті Дженкінс / Patty Jenkins
GENRE                       : трилер, драма, кримінальний, біографічний
SYNOPSIS                    : Любовна історія, що розгортається на тлі жахливих злочинів двох знедолених — повії-бродяжки Ворнос, що вбиває багатьох зі своїх клієнтів — «джонні», і Селбі Волл, відісланої батьками до тітки у Флориду, щоб "вилікувати від лесбійських схильностей"...
Url                         : https://toloka.to/t84991

Video
ID                          : 1
Format                      : AVC
Format/Info                 : Advanced Video Codec
Format profile              : [email protected]
Format settings             : CABAC / 9 Ref Frames
Format settings, CABAC      : Yes
Format settings, Reference  : 9 frames
Codec ID                    : V_MPEG4/ISO/AVC
Duration                    : 1 h 48 min
Bit rate                    : 7 570 kb/s
Width                       : 1 280 pixels
Height                      : 694 pixels
Display aspect ratio        : 1.85:1
Frame rate mode             : Constant
Frame rate                  : 23.976 (24000/1001) FPS
Color space                 : YUV
Chroma subsampling          : 4:2:0
Bit depth                   : 8 bits
Scan type                   : Progressive
Bits/(Pixel*Frame)          : 0.355
Stream size                 : 5.75 GiB (90%)
Title                       : Монстр / Monster (2003) 720p [STarankov]
Writing library             : core 142 r2431 ac76440
Encoding settings           : cabac=1 / ref=9 / deblock=1:-1:-1 / analyse=0x3:0x113 / me=umh / subme=10 / psy=1 / psy_rd=1.00:0.15 / mixed_ref=1 / me_range=32 / chroma_me=1 / trellis=2 / 8x8dct=1 / cqm=0 / deadzone=21,11 / fast_pskip=1 / chroma_qp_offset=-3 / threads=6 / lookahead_threads=1 / sliced_threads=0 / nr=0 / decimate=1 / interlaced=0 / bluray_compat=0 / constrained_intra=0 / bframes=8 / b_pyramid=2 / b_adapt=2 / b_bias=0 / direct=3 / weightb=1 / open_gop=0 / weightp=2 / keyint=230 / keyint_min=23 / scenecut=40 / intra_refresh=0 / rc_lookahead=40 / rc=crf / mbtree=0 / crf=19.0 / qcomp=0.60 / qpmin=0 / qpmax=69 / qpstep=4 / vbv_maxrate=50000 / vbv_bufsize=62500 / crf_max=0.0 / nal_hrd=none / filler=0 / ip_ratio=1.40 / pb_ratio=1.30 / aq=1:1.00
Language                    : English
Default                     : Yes
Forced                      : No

Audio #1
ID                          : 2
Format                      : AC-3
Format/Info                 : Audio Coding 3
Commercial name             : Dolby Digital
Codec ID                    : A_AC3
Duration                    : 1 h 48 min
Bit rate mode               : Constant
Bit rate                    : 192 kb/s
Channel(s)                  : 2 channels
Channel layout              : L R
Sampling rate               : 48.0 kHz
Frame rate                  : 31.250 FPS (1536 SPF)
Bit depth                   : 16 bits
Compression mode            : Lossy
Stream size                 : 149 MiB (2%)
Title                       : MVO [Inter] 2.0 [stereo] 192 Kbps [Hurtom]
Language                    : Ukrainian
Service kind                : Complete Main
Default                     : Yes
Forced                      : No

Audio #2
ID                          : 3
Format                      : AC-3
Format/Info                 : Audio Coding 3
Commercial name             : Dolby Digital
Codec ID                    : A_AC3
Duration                    : 1 h 48 min
Bit rate mode               : Constant
Bit rate                    : 192 kb/s
Channel(s)                  : 2 channels
Channel layout              : L R
Sampling rate               : 48.0 kHz
Frame rate                  : 31.250 FPS (1536 SPF)
Bit depth                   : 16 bits
Compression mode            : Lossy
Delay relative to video     : 18 ms
Stream size                 : 149 MiB (2%)
Title                       : MVO [Volya Cine+] 2.0 192 Kbps [Hurtom-Electroz, Sando7]
Language                    : Ukrainian
Service kind                : Complete Main
Default                     : No
Forced                      : No

Audio #3
ID                          : 4
Format                      : AC-3
Format/Info                 : Audio Coding 3
Commercial name             : Dolby Digital
Codec ID                    : A_AC3
Duration                    : 1 h 48 min
Bit rate mode               : Constant
Bit rate                    : 448 kb/s
Channel(s)                  : 6 channels
Channel layout              : L R C LFE Ls Rs
Sampling rate               : 48.0 kHz
Frame rate                  : 31.250 FPS (1536 SPF)
Bit depth                   : 16 bits
Compression mode            : Lossy
Stream size                 : 349 MiB (5%)
Title                       : Original, 5.1 448 Kbps
Language                    : English
Service kind                : Complete Main
Default                     : No
Forced                      : No

Text
ID                          : 5
Format                      : UTF-8
Codec ID                    : S_TEXT/UTF8
Codec ID/Info               : UTF-8 Plain Text
Duration                    : 1 h 42 min
Bit rate                    : 46 b/s
Count of elements           : 1119
Stream size                 : 35.2 KiB (0%)
Title                       : Eng full
Language                    : English
Default                     : No
Forced                      : No

Menu
00:00:00.000                : en:Chapter 1
00:12:40.000                : en:Chapter 2
00:27:12.033                : en:Chapter 3
00:41:36.066                : en:Chapter 4
00:54:48.299                : en:Chapter 5
01:09:44.166                : en:Chapter 6
01:28:32.299                : en:Chapter 7
01:43:20.066                : en:Chapter 8


Код:
frame I:1051 Avg QP:17.20 size:122940
frame P:29630 Avg QP:18.28 size: 67237
frame B:125846 Avg QP:20.64 size: 32234


Джерело: &
Подяки за українські доріжки: Bohdan237, igor911, Sando7, Electroz.

25.04.2019 реліз оновлено - додано доріжку з Інтера


Срібний реліз (на рейтинг впливає 50% завантаженого)
 Трекер:    Зареєстрований   

Завантажити / скачати фільм українською



відео для новачків



 Зареєстрований:   2019-04-25 22:02
 Розмір:   6.39 GB 
 Оцінка фільму:   5.8/10 (Голосів: 23)
 ЗАЛИШАЙТЕСЬ ЯКОМОГА ДОВШЕ НА РОЗДАЧІ! ЗАВАНТАЖИВ САМ - ДАЙ ЗАВАНТАЖИТИ ІНШИМ!
   
Інші релізи
   Монстр / Monster (2003) 2xUkr/Eng drop_plz  2 / 1   2.19 GB   2019-06-27 12:06 
   Монстр / Monster (2003) AVC 2xUkr/Eng | Sub Eng igor911  2 / 0   2.08 GB   2019-04-25 21:42 
   Монстр / Monster (2003) Electroz  2 / 0   1.31 GB   2017-11-03 20:38 
Wowatorrent 
Поважний учасник


З нами з: 24.03.16
Востаннє: 01.10.20
Повідомлень: 174

2017-11-11 15:55  
Колись мені цей фільм не дуже сподобався, але зараз переглянув, і змінив свою думку. Непогане кіно.
Anonymous 







2019-04-25 22:04  
25.04.2019 реліз оновлено - додано доріжку з Інтера.
Ваш часовий пояс: GMT + 2 Години

Нова тема   Відповісти