Монстр / Monster (2003) AVC Ukr/Eng | Sub Eng

Нові коментарі

Нова тема   Відповісти
Автор Повідомлення
Anonymous 







2017-11-02 23:43  
Монстр / Monster (2003) AVC Ukr/Eng | Sub Eng

Монстр / Monster (2003) AVC Ukr/Eng | Sub Eng


Жанр: трилер, драма, кримінальний, біографічний
Країна: США, Німеччина

Оскар, Золотий глобус, премії Берлінського кінофестивалю та Гільдії акторів за найкращу жіночу роль (Шарліз Терон)




Кінокомпанія: Media 8 Entertainment, Newmarket Films, DEJ Productions, K/W Productions, Denver and Delilah Productions, VIP 2 Medienfonds, MDP Worldwide, Zodiac Productions Inc.
Режисер: Петті Дженкінс / Patty Jenkins
Актори: Шарліз Терон / Charlize Theron, Крістіна Річчі / Christina Ricci, Брюс Дерн / Bruce Dern, Лі Тергезен / Lee Tergesen, Енні Корлі / Annie Corley, Прюітт Тейлор Вінс / Pruitt Taylor Vince, Марко Ст. Джон / Marco St. John, Джим Р. Коулмен / Jim R. Coleman та інші

Сюжет:
Любовна історія, що розгортається на тлі жахливих злочинів двох знедолених — повії-бродяжки Ворнос, що вбиває багатьох зі своїх клієнтів — «джонні», і Селбі Волл, відісланої батьками до тітки у Флориду, щоб "вилікувати від лесбійських схильностей".


Рейтинг MPAA: R - особам до 17 років обов'язкова присутність батьків або дорослого опікуна
Вікова категорія: 16+
Тривалість: 01:48:48
Якість: AVC
Відео:
кодек:
розмір кадру: 1120x608
бітрейт: 2082 кб/с

Аудіо # 1:
мова: українська
переклад: багатоголосий закадровий
кодек: 2.0 [стерео]
бітрейт: 192 кб/с

Аудіо # 2:
мова: англійська
переклад: оригінал
кодек: 5.1
бітрейт: 264 кб/с

Субтитри:
мова: англійська
тип: програмні (м'які)
формат: *.srt

Збережено оригінальні розділи, як на Blu-ray
Info та log
Код:
Complete name               : Monster (2003) [Ukr,Eng sub.Eng] AVC [Hurtom].
Format                      :
Format version              : Version 4 / Version 2
File size                   : 1.93 GiB
Duration                    : 1 h 48 min
Overall bit rate            : 2 545 kb/s
Movie name                  : Монстр / Monster (2003) [Ukr,Eng sub.Eng] AVC [Hurtom]
Released date               : 2003
Writing application         : mkvmerge v17.0.0 ('Be Ur Friend') 64-bit
Writing library             : libebml v1.3.5 + libmatroska v1.4.8
Cover                       : Yes
Comment                     : http://www.imdb.com/title/tt0340855/
Attachments                 : cover.jpg / log.txt
ARTIST                      : Шарліз Терон (Charlize Theron), Крістіна Річчі / Christina Ricci, Брюс Дерн / Bruce Dern, Лі Тергезен / Lee Tergesen, Енні Корлі / Annie Corley, Прюітт Тейлор Вінс / Pruitt Taylor Vince, Марко Ст. Джон / Marco St. John, Джим Р. Коулмен / Jim R. Coleman та інші
DIRECTOR                    : Петті Дженкінс / Patty Jenkins
GENRE                       : трилер, драма, кримінальний, біографічний
SYNOPSIS                    : Любовна історія, що розгортається на тлі жахливих злочинів двох знедолених — повії-бродяжки Ворнос, що вбиває багатьох зі своїх клієнтів — «джонні», і Селбі Волл, відісланої батьками до тітки у Флориду, щоб "вилікувати від лесбійських схильностей"...
Url                         : https://toloka.to/t84988

Video
ID                          : 1
Format                      : AVC
Format/Info                 : Advanced Video Codec
Format profile              : [email protected]
Format settings             : CABAC / 10 Ref Frames
Format settings, CABAC      : Yes
Format settings, RefFrames  : 10 frames
Codec ID                    : V_MPEG4/ISO/AVC
Duration                    : 1 h 48 min
Bit rate                    : 2 082 kb/s
Width                       : 1 120 pixels
Height                      : 608 pixels
Display aspect ratio        : 1.85:1
Frame rate mode             : Constant
Frame rate                  : 23.976 (24000/1001) FPS
Color space                 : YUV
Chroma subsampling          : 4:2:0
Bit depth                   : 8 bits
Scan type                   : Progressive
Bits/(Pixel*Frame)          : 0.127
Stream size                 : 1.58 GiB (82%)
Title                       : Монстр / Monster (2003) AVC [tRuAVC-Skazhutin]
Writing library             : core 67 r1145 d2e1e1c
Encoding settings           : cabac=1 / ref=10 / deblock=1:-2:0 / analyse=0x3:0x113 / me=umh / subme=9 / psy_rd=1.0:0.0 / mixed_ref=1 / me_range=32 / chroma_me=1 / trellis=2 / 8x8dct=1 / cqm=0 / deadzone=21,11 / chroma_qp_offset=-2 / threads=3 / nr=0 / decimate=1 / mbaff=0 / bframes=8 / b_pyramid=1 / b_adapt=2 / b_bias=0 / direct=1 / wpredb=1 / keyint=250 / keyint_min=25 / scenecut=45 / rc=crf / crf=22.5 / qcomp=0.60 / qpmin=10 / qpmax=51 / qpstep=4 / ip_ratio=1.40 / pb_ratio=1.30 / aq=1:1.00
Language                    : English
Default                     : Yes
Forced                      : No
Color range                 : Limited
Matrix coefficients         : BT.709

Audio #1
ID                          : 2
Format                      : AC-3
Format/Info                 : Audio Coding 3
Format settings, Endianness : Big
Codec ID                    : A_AC3
Duration                    : 1 h 48 min
Bit rate mode               : Constant
Bit rate                    : 192 kb/s
Channel(s)                  : 2 channels
Channel positions           : Front: L R
Sampling rate               : 48.0 kHz
Frame rate                  : 31.250 FPS (1536 SPF)
Bit depth                   : 16 bits
Compression mode            : Lossy
Delay relative to video     : 18 ms
Stream size                 : 149 MiB (8%)
Title                       : MVO [Volya Cine+] 2.0 192 Kbps [Hurtom-Electroz, Sando7]
Language                    : Ukrainian
Service kind                : Complete Main
Default                     : Yes
Forced                      : Yes

Audio #2
ID                          : 3
Format                      :
Format/Info                 : Advanced Audio Codec
Format profile              : LC
Codec ID                    : A_AAC-2
Duration                    : 1 h 48 min
Bit rate                    : 265 kb/s
Channel(s)                  : 6 channels
Channel positions           : Front: L C R, Side: L R, LFE
Sampling rate               : 48.0 kHz
Frame rate                  : 46.875 FPS (1024 SPF)
Compression mode            : Lossy
Stream size                 : 209 MiB (11%)
Title                       : Original, -LC 5.1 264 Kbps
Language                    : English
Default                     : No
Forced                      : No

Text
ID                          : 4
Format                      : UTF-8
Codec ID                    : S_TEXT/UTF8
Codec ID/Info               : UTF-8 Plain Text
Duration                    : 1 h 42 min
Bit rate                    : 46 b/s
Count of elements           : 1119
Stream size                 : 35.2 KiB (0%)
Language                    : English
Default                     : No
Forced                      : No

Menu
00:00:00.000                : en:Chapter 1
00:05:20.445                : en:Chapter 2
00:08:43.231                : en:Chapter 3
00:13:00.237                : en:Chapter 4
00:17:40.017                : en:Chapter 5
00:20:57.381                : en:Chapter 6
00:26:45.478                : en:Chapter 7
00:30:16.940                : en:Chapter 8
00:35:43.891                : en:Chapter 9
00:40:37.226                : en:Chapter 10
00:44:43.931                : en:Chapter 11
00:47:37.980                : en:Chapter 12
00:51:32.756                : en:Chapter 13
00:56:13.078                : en:Chapter 14
00:59:46.165                : en:Chapter 15
01:04:06.968                : en:Chapter 16
01:07:49.815                : en:Chapter 17
01:12:33.932                : en:Chapter 18
01:17:22.387                : en:Chapter 19
01:21:33.430                : en:Chapter 20
01:30:12.865                : en:Chapter 21
01:34:43.427                : en:Chapter 22
01:40:26.645                : en:Chapter 23
01:42:54.668                : en:Chapter 24
01:48:46.561                : en:Chapter 25


Код:
avis [info]: 1120x608 @ 23.98 fps (156527 frames)
[info]: using SAR=1/1
[info]: using cpu capabilities: MMX2 SSE2Fast SSSE3 Cache64
[info]: profile High, level 4.0
[info]: slice I:1665  Avg QP:18.38  size: 53398  PSNR Mean Y:45.56 U:52.00 V:53.34 Avg:46.76 Global:45.75
[info]: slice P:47640 Avg QP:20.47  size: 19370  PSNR Mean Y:43.93 U:49.14 V:50.52 Avg:45.10 Global:43.77
[info]: slice B:107222 Avg QP:22.37  size:  6407  PSNR Mean Y:42.75 U:48.68 V:50.14 Avg:44.02 Global:43.04
[info]: consecutive B-frames:  1.3%  8.9% 47.9% 21.4% 10.4%  6.2%  2.0%  1.2%  0.6%
[info]: mb I  I16..4:  8.2% 83.9%  7.9%
[info]: mb P  I16..4:  0.4%  3.9%  0.3%  P16..4: 49.9% 21.0% 13.2%  0.0%  0.0%    skip:11.4%
[info]: mb B  I16..4:  0.0%  0.2%  0.0%  B16..8: 53.9%  0.7%  1.3%  direct: 3.9%  skip:39.9%  L0:40.9% L1:56.6% BI: 2.4%
[info]: 8x8 transform  intra:85.4%  inter:70.1%
[info]: coded y,uvDC,uvAC intra:89.2% 77.8% 36.6% inter:24.1% 22.8% 0.4%
[info]: ref P L0  49.6% 20.1%  9.0%  5.4%  3.7%  3.8%  2.9%  2.0%  1.7%  2.0%
[info]: ref B L0  70.2% 15.4%  4.7%  2.8%  1.9%  1.8%  1.4%  1.0%  0.7%
[info]: ref B L1  91.3%  8.7%
[info]: SSIM Mean Y:0.9644825
[info]: PSNR Mean Y:43.142 U:48.853 V:50.291 Avg:44.376 Global:43.272 kb/s:2081.52

encoded 156527 frames, 1.72 fps, 2081.61 kb/s


Джерело: &
Подяка Sando7 за запис звуку з ТБ та Electroz'у за синхронізацію


Срібний реліз (на рейтинг впливає 50% завантаженого)
 Трекер:    Зареєстрований   

Завантажити / скачати фільм українською



відео для новачків



 Зареєстрований:   2017-11-03 02:29
 Розмір:   1.93 GB 
 Оцінка фільму:   5/10 (Голосів: 21)
   
Інші релізи
   Монстр / Monster (2003) Electroz  4 / 0   1.31 GB   2017-11-03 19:38 
   Монстр / Monster (2003) 720p Ukr/Eng | Sub Eng igor911  8 / 0   6.24 GB   2017-11-03 11:12 
Anonymous 







2017-11-03 02:41  
Тут було усунуто розсинхрон української доріжки, який був у першоджерелі https://toloka.to/t84981
alex2 
Частий відвідувач


З нами з: 01.02.12
Востаннє: 13.12.17
Повідомлень: 38

2017-11-03 08:34  
Найкраща роль Терон.
Skiff 
музика
музика


З нами з: 12.11.07
Востаннє: 13.12.17
Повідомлень: 3058

2017-11-03 09:42  
Ще б не завадили відбитки до опису додати.
Anonymous 







2017-11-03 10:10  
додав
Ваш часовий пояс: GMT + 2 Години

Нова тема   Відповісти