Поки ти спав / While You Were Sleeping (1995) 720p Ukr/Eng | Sub Eng

Нові коментарі

Нова тема   Відповісти
Автор Повідомлення
Anonymous 







2017-11-02 21:20  
Поки ти спав / While You Were Sleeping (1995) 720p Ukr/Eng | Sub Eng

Поки ти спав / While You Were Sleeping (1995) 720p Ukr/Eng | Sub Eng
Оригінальна обкладинка:


повнорозмірне зображення відкриється по кліку (з натиснутим CTRL чи кліком середньою кнопкою мишки - у новій вкладці)


Жанр: драма, мелодрама, комедія
Країна: США



Кінокомпанія: Caravan Pictures, Hollywood Pictures
Режисер: Джон Тертлтауб / Jon Turteltaub
Актори: Сандра Буллок / Sandra Bullock, Білл Пуллман / Bill Pullman, Пітер Галлахер / Peter Gallagher, Пітер Бойл / Peter Boyle, Джек Варден / Jack Warden, Глініс Джонс / Glynis Johns, Міколь Меркуріо / Micole Mercurio, Джейсон Бернард / Jason Bernard та інші

Сюжет:
Сором'язливість заважає Люсі познайомитися з чоловіком своєї мрії, якого вона бачить кожного ранку. Зате допомагає випадок, і дівчина рятує незнайомцю життя. Тепер вона може милуватися ним цілими днями: врятований Пітер лежить в лікарні у комі. Сім'я помилково приймає її за його наречену, і Люсі не хоче розчаровувати цих милих людей. Адже вона вже встигла прив'язатися до них, особливо до брата Пітера. І поки нічого не підозрюючи "наречений" спить, його "наречена" вже не вірить в прекрасний сон. Скоро Люсі доведеться вибирати між чарівною казкою і таким реальним коханням ...


Рейтинг MPAA: PG - рекомендується присутність батьків
Вікова категорія: 12+
Тривалість: 01:43:15
Якість: 720p
Відео:
кодек:
розмір кадру: 1280х692
бітрейт: 12,9 Мб/с [crf=19]

Аудіо # 1:
мова: українська
переклад: двоголосий закадровий
ролі озвучили: Ірина Стасів? і Олександр Ігнатуша
кодек: 2.0
бітрейт: 192 кб/с

Аудіо # 2:
мова: англійська
переклад: оригінал
кодек: 5.1
бітрейт: 448 кб/с

Субтитри:
мова: англійська
тип: програмні (м'які)
формат: *.srt
Info
Код:
Complete name               : While You Were Sleeping (1995) [Ukr,Eng sub.Eng] 720p [Hurtom].
Format                      :
Format version              : Version 4 / Version 2
File size                   : 9.79 GiB
Duration                    : 1 h 43 min
Overall bit rate            : 13.6 Mb/s
Movie name                  : Поки ти спав / While You Were Sleeping (1995) [Ukr,Eng sub.Eng] 720p [Hurtom]
Released date               : 1995
Writing application         : v17.0.0 ('Be Ur Friend') 64-bit
Writing library             : libebml v1.3.5 + v1.4.8
Cover                       : Yes
Comment                     : http://www.imdb.com/title/tt0114924/
Attachments                 : cover.jpg
ARTIST                      : Сандра Баллок / Sandra Bullock, Білл Пуллман / Bill Pullman, Пітер Галлахер / Peter Gallagher, Пітер Бойл / Peter Boyle, Джек Варден / Jack Warden, Глініс Джонс / Glynis Johns, Міколь Меркуріо / Micole Mercurio, Джейсон Бернард / Jason Bernard та інші
DIRECTOR                    : Джон Тертлтауб / Jon Turteltaub
GENRE                       : драма, мелодрама, комедія
SYNOPSIS                    : Сором'язливість заважає Люсі познайомитися з чоловіком своєї мрії, якого вона бачить кожного ранку. Зате допомагає випадок, і дівчина рятує незнайомцю життя. Тепер вона може милуватися ним цілими днями: врятований Пітер лежить в лікарні без свідомості. Сім'я помилково приймає її за його наречену, і Люсі не хоче розчаровувати цих милих людей. Адже вона вже встигла прив'язатися до них, особливо до брата Пітера. І поки нічого не підозрюючи "наречений" спить, його "наречена" вже не вірить в прекрасний сон. Скоро Люсі доведеться вибирати між чарівною казкою і таким реальним коханням...
Url                         : https://toloka.to/t84984

Video
ID                          : 1
Format                      : AVC
Format/Info                 : Advanced Video Codec
Format profile              : [email protected]
Format settings             : CABAC / 8 Ref Frames
Format settings, CABAC      : Yes
Format settings, RefFrames  : 8 frames
Codec ID                    : V_MPEG4/ISO/AVC
Duration                    : 1 h 43 min
Bit rate                    : 12.9 Mb/s
Width                       : 1 280 pixels
Height                      : 692 pixels
Display aspect ratio        : 1.85:1
Frame rate mode             : Constant
Frame rate                  : 23.976 (24000/1001) FPS
Color space                 : YUV
Chroma subsampling          : 4:2:0
Bit depth                   : 8 bits
Scan type                   : Progressive
Bits/(Pixel*Frame)          : 0.609
Stream size                 : 9.33 GiB (95%)
Title                       : Поки ти спав / While You Were Sleeping (1995) 720p [Leonardo & Scarabey]
Writing library             : core 125 r2208 d9d2288
Encoding settings           : cabac=1 / ref=8 / deblock=1:-3:-3 / analyse=0x3:0x133 / me=umh / subme=11 / psy=1 / psy_rd=1.00:0.00 / mixed_ref=1 / me_range=32 / chroma_me=1 / trellis=2 / 8x8dct=1 / cqm=0 / deadzone=21,11 / fast_pskip=0 / chroma_qp_offset=-2 / threads=12 / lookahead_threads=2 / sliced_threads=0 / nr=0 / decimate=1 / interlaced=0 / bluray_compat=0 / constrained_intra=0 / bframes=8 / b_pyramid=2 / b_adapt=2 / b_bias=0 / direct=1 / weightb=1 / open_gop=0 / weightp=2 / keyint=250 / keyint_min=23 / scenecut=40 / intra_refresh=0 / rc=crf / mbtree=0 / crf=19.0 / qcomp=0.60 / qpmin=0 / qpmax=69 / qpstep=4 / ip_ratio=1.10 / pb_ratio=1.10 / aq=1:1.00
Language                    : English
Default                     : Yes
Forced                      : No

Audio #1
ID                          : 2
Format                      : AC-3
Format/Info                 : Audio Coding 3
Format settings, Endianness : Big
Codec ID                    : A_AC3
Duration                    : 1 h 43 min
Bit rate mode               : Constant
Bit rate                    : 192 kb/s
Channel(s)                  : 2 channels
Channel positions           : Front: L R
Sampling rate               : 48.0 kHz
Frame rate                  : 31.250 FPS (1536 SPF)
Bit depth                   : 16 bits
Compression mode            : Lossy
Stream size                 : 142 MiB (1%)
Title                       : DVO [1+1] 2.0 192 Kbps [Hurtom-MutuLI, sando7]
Language                    : Ukrainian
Service kind                : Complete Main
Default                     : Yes
Forced                      : Yes

Audio #2
ID                          : 3
Format                      : AC-3
Format/Info                 : Audio Coding 3
Format settings, Endianness : Big
Codec ID                    : A_AC3
Duration                    : 1 h 43 min
Bit rate mode               : Constant
Bit rate                    : 448 kb/s
Channel(s)                  : 6 channels
Channel positions           : Front: L C R, Side: L R, LFE
Sampling rate               : 48.0 kHz
Frame rate                  : 31.250 FPS (1536 SPF)
Bit depth                   : 16 bits
Compression mode            : Lossy
Stream size                 : 331 MiB (3%)
Title                       : Original, 5.1 448 Kbps
Language                    : English
Service kind                : Complete Main
Default                     : No
Forced                      : No

Text
ID                          : 4
Format                      : UTF-8
Codec ID                    : S_TEXT/UTF8
Codec ID/Info               : UTF-8 Plain Text
Duration                    : 1 h 37 min
Bit rate                    : 75 b/s
Count of elements           : 1612
Stream size                 : 53.7 KiB (0%)
Title                       : Eng SDH
Language                    : English
Default                     : No
Forced                      : No


Джерело: &
Подяка sando7 за запис з ТБ, MutuLI за синхронізацію та Ella1 за постер


Срібний реліз (на рейтинг впливає 50% завантаженого)
 Трекер:    Зареєстрований   

Завантажити / скачати фільм українською



відео для новачків



 Зареєстрований:   2017-11-02 22:11
 Розмір:   9.79 GB 
 Оцінка фільму:   5.9/10 (Голосів: 22)
   
Інші релізи
mv26 
Новенький


З нами з: 11.09.13
Востаннє: 25.09.20
Повідомлень: 15

2017-11-11 03:45  
Гарний фільм, дякую.
0mage0 
VIP


З нами з: 06.10.15
Востаннє: 30.09.20
Повідомлень: 696

2017-12-28 09:41  
Старий добрий фільм Happy
olyx 
Відео Гуртом - підтримка та поширення
Відео Гуртом - підтримка та поширення


З нами з: 26.01.10
Востаннє: 28.09.20
Повідомлень: 273

2020-03-24 12:11  
Люди роздають, а в мене не завантажується(((
Anonymous 







2020-03-24 12:17  
olyx написано:
роздають, а в мене не завантажується

щось перемудрили з польським та фінським айпішніками

Аркадій Дзиґа 
VIP


З нами з: 09.10.14
Востаннє: 30.09.20
Повідомлень: 463

2020-04-29 03:24  
Жіночі ролі озвучувала Тетяна Антонова
Ваш часовий пояс: GMT + 2 Години

Нова тема   Відповісти