Овердрайв / Overdrive (2017) Remux 1080p Ukr/Eng | Sub Eng/Esp

Нові коментарі

Нова тема   Відповісти
Останній раз роздавалося redtrip (2020-08-22)
Автор Повідомлення
Anonymous 







2017-10-31 00:27  
Овердрайв / Overdrive (2017) Remux Ukr/Eng | Sub Eng/Esp

Овердрайв / Overdrive (2017) Remux 1080p Ukr/Eng | Sub Eng/Esp


Жанр: бойовик, трилер
Країна: США, Франція



Кінокомпанія: Overdrive Productions, Kinology, TF1 Films Production
Режисер: Антоніо Негре / Antonio Negret
Актори: Скотт Іствуд / Scott Eastwood, Ана де Армас / Ana de Armas, Гайя Вайсс / Gaia Weiss, Фредді Торп / Freddie Thorp, Клеменс Шик / Clemens Schick, Саймон Абкарян / Simon Abkarian, Мусса Мааскрі / Moussa Maaskri та інші

Сюжет:
Фільм розповість про двох братів-авантюристів, відомих викрадачів авто, які ведуть розпусний спосіб життя. Хлопці вирушають на Південь Франції у пошуках нових вражень і красивих тачок. Вони стикаються з жорстоким кримінальним босом, що не збирається терпіти самодіяльність в його районі...
Офіційний український трейлер:


Рейтинг MPAA: PG-13 - дітям до 13 років перегляд не бажаний
Вікова категорія: 12+
Тривалість: 01:33:29
Якість: Remux

Відео:
кодек:
розмір кадру: 1920 х 1080
бітрейт: 30723 кб/с

Аудіо # 1:
мова: українська
переклад: професійний дубльований | студія ААА-sound
кодек: 5.1
бітрейт: 384 кб/с
Інформація про дубляж
Режисер дубляжу: Олександр Єфімов
Ролі дублювали: Дмитро Гаврилов, Павло Скороходько, Юлія Перенчук, Дмитро Завадський, Катерина Брайковська, Андрій Федінчик, Ярослав Чорненький, Юрій Ребрик, Анатолій Зіновенко та інші
Фільм дубльовано студією ААА-sound у 2017 році на замовлення компанії "Вольга Україна"
Аудіо # 2:
мова: англійська
переклад: оригінал
кодек: -HD MA 5.1
бітрейт: 4503 кб/с

Субтитри # 1-2:
мова: англійська (повні, SDH)
тип: пререндерні
формат: pgs

Субтитри # 3:
мова: іспанська
тип: пререндерні
формат: pgs

Збережено оригінальні розділи
Info
Код:
Complete name               : Overdrive (2017) [Ukr,Eng sub.Eng,Esp] Remux 1080p [Hurtom].
Format                      :
Format version              : Version 4 / Version 2
File size                   : 23.3 GiB
Duration                    : 1 h 33 min
Overall bit rate mode       : Variable
Overall bit rate            : 35.6 Mb/s
Movie name                  : Овердрайв / Overdrive (2017) [Ukr,Eng sub.Eng,Esp] Remux 1080p [Hurtom]
Released date               : 2017
Writing application         : v17.0.0 ('Be Ur Friend') 64-bit
Writing library             : libebml v1.3.5 + v1.4.8
Cover                       : Yes
Comment                     : http://www.imdb.com/title/tt1935194/
Attachments                 : cover.jpg
ARTIST                      : Скотт Іствуд / Scott Eastwood, Ана де Армас / Ana de Armas, Гайя Вайсс / Gaia Weiss, Фредді Торп / Freddie Thorp, Клеменс Шик / Clemens Schick, Саймон Абкарян / Simon Abkarian, Мусса Мааскрі / Moussa Maaskri та інші
DIRECTOR                    : Антоніо Негре / Antonio Negret
GENRE                       : бойовик, трилер
SYNOPSIS                    : Фільм розповість про двох братів-авантюристів, відомих викрадачів авто, які ведуть розпусний спосіб життя. Хлопці вирушають на Південь Франції у пошуках нових вражень і красивих тачок. Вони стикаються з жорстоким кримінальним босом, що не збирається терпіти самодіяльність в його районі...
Url                         : https://toloka.to/t84945

Video
ID                          : 1
Format                      : AVC
Format/Info                 : Advanced Video Codec
Format profile              : [email protected]
Format settings             : CABAC / 4 Ref Frames
Format settings, CABAC      : Yes
Format settings, RefFrames  : 4 frames
Codec ID                    : V_MPEG4/ISO/AVC
Duration                    : 1 h 33 min
Bit rate mode               : Variable
Bit rate                    : 30.7 Mb/s
Maximum bit rate            : 35.0 Mb/s
Width                       : 1 920 pixels
Height                      : 1 080 pixels
Display aspect ratio        : 16:9
Frame rate mode             : Constant
Frame rate                  : 23.976 (24000/1001) FPS
Color space                 : YUV
Chroma subsampling          : 4:2:0
Bit depth                   : 8 bits
Scan type                   : Progressive
Bits/(Pixel*Frame)          : 0.618
Stream size                 : 20.1 GiB (86%)
Title                       : Овердрайв / Overdrive (2017) Remux [BlueBird]
Language                    : English
Default                     : Yes
Forced                      : No

Audio #1
ID                          : 2
Format                      : AC-3
Format/Info                 : Audio Coding 3
Format settings, Endianness : Big
Codec ID                    : A_AC3
Duration                    : 1 h 33 min
Bit rate mode               : Constant
Bit rate                    : 384 kb/s
Channel(s)                  : 6 channels
Channel positions           : Front: L C R, Side: L R, LFE
Sampling rate               : 48.0 kHz
Frame rate                  : 31.250 FPS (1536 SPF)
Bit depth                   : 16 bits
Compression mode            : Lossy
Stream size                 : 256 MiB (1%)
Title                       : Dub [AAA-sound, iTunes] 5.1 384 Kbps
Language                    : Ukrainian
Service kind                : Complete Main
Default                     : Yes
Forced                      : Yes

Audio #2
ID                          : 3
Format                      :
Format/Info                 : Digital Theater Systems
Format profile              : MA / Core
Mode                        : 16
Format settings, Endianness : Big
Codec ID                    : A_DTS
Duration                    : 1 h 33 min
Bit rate mode               : Variable / Constant
Bit rate                    : 4 503 kb/s / 1 509 kb/s
Channel(s)                  : 6 channels
Channel positions           : Front: L C R, Side: L R, LFE
Sampling rate               : 48.0 kHz
Frame rate                  : 93.750 FPS (512 SPF)
Bit depth                   : 24 bits
Compression mode            : Lossless / Lossy
Stream size                 : 2.94 GiB (13%)
Title                       : Original, -HD MA 5.1 4503 Kbps
Language                    : English
Default                     : No
Forced                      : No

Text #1
ID                          : 4
Format                      : PGS
Muxing mode                 : zlib
Codec ID                    : S_HDMV/PGS
Codec ID/Info               : Picture based subtitle format used on BDs/HD-DVDs
Duration                    : 1 h 27 min
Bit rate                    : 27.1 kb/s
Count of elements           : 1778
Stream size                 : 16.9 MiB (0%)
Title                       : Eng full
Language                    : English
Default                     : No
Forced                      : No

Text #2
ID                          : 5
Format                      : PGS
Muxing mode                 : zlib
Codec ID                    : S_HDMV/PGS
Codec ID/Info               : Picture based subtitle format used on BDs/HD-DVDs
Duration                    : 1 h 27 min
Bit rate                    : 32.2 kb/s
Count of elements           : 2206
Stream size                 : 20.1 MiB (0%)
Title                       : Eng SDH
Language                    : English
Default                     : No
Forced                      : No

Text #3
ID                          : 6
Format                      : PGS
Muxing mode                 : zlib
Codec ID                    : S_HDMV/PGS
Codec ID/Info               : Picture based subtitle format used on BDs/HD-DVDs
Duration                    : 1 h 27 min
Bit rate                    : 26.0 kb/s
Count of elements           : 1848
Stream size                 : 16.2 MiB (0%)
Title                       : Esp
Language                    : Spanish
Default                     : No
Forced                      : No

Menu
00:00:00.000                : en:Chapter 1
00:06:34.726                : en:Chapter 2
00:10:13.153                : en:Chapter 3
00:19:21.993                : en:Chapter 4
00:25:37.661                : en:Chapter 5
00:31:25.884                : en:Chapter 6
00:38:25.677                : en:Chapter 7
00:44:57.277                : en:Chapter 8
00:48:32.409                : en:Chapter 9
00:54:31.268                : en:Chapter 10
01:01:38.360                : en:Chapter 11
01:10:08.578                : en:Chapter 12
01:17:31.729                : en:Chapter 13
01:25:31.292                : en:Chapter 14
01:27:38.962                : en:Chapter 15


Джерело: &


Золотий реліз (завантажене не впливає на рейтинг)
 Трекер:    Зареєстрований   

Завантажити / скачати фільм українською



відео для новачків



 Зареєстрований:   2017-10-31 01:25
 Розмір:   23.28 GB 
 Оцінка фільму:   5/10 (Голосів: 24)
   
Інші релізи
   Овердрайв / Overdrive (2017) AVC Ukr/Eng | Sub Eng 11FrYkT  1 / 0   2.17 GB   2017-11-01 21:10 
   Овердрайв / Overdrive (2017) 720p Ukr/Eng | Sub Eng igor911  3 / 0   3.17 GB   2017-11-01 00:15 
   Овердрайв / Overdrive (2017) 1080p Ukr/Eng | Sub Eng 11FrYkT  0 / 0   7.43 GB   2017-10-31 20:17 
   Овердрайв / Overdrive (2017) igor911  3 / 0   1.45 GB   2017-10-31 11:59 
lastbreath 
Свій


З нами з: 02.12.15
Востаннє: 27.09.20
Повідомлень: 55

2017-10-31 19:34  
Неймовірно тупий фільм. Навіть де Армас його не врятувала )
NAZARIJ007 
Частий відвідувач


З нами з: 06.06.12
Востаннє: 27.09.20
Повідомлень: 41

2017-11-02 23:47  
хотілось просто подивитись легкий фільм, але не настільки, де про "неймовірний поворот вкінці" було відомо ще з середини фільму + купа тупих моментів і нестиковок
Uberwinder 
VIP


З нами з: 18.11.16
Востаннє: 28.09.20
Повідомлень: 280

2018-01-03 21:28  
Фільм увесь побудований на шаблонах з закосом під "Форсажі".
Anonymous 







2020-03-24 19:29  
Роздачу відновлено
Ваш часовий пояс: GMT + 2 Години

Нова тема   Відповісти