Ікар / Icarus (2017) AVC Ukr | Sub Ukr

Нові коментарі

Нова тема   Відповісти
Автор Повідомлення
Omikron 
VIP


З нами з: 03.01.12
Востаннє: 01.09.18
Повідомлень: 327

2017-10-30 18:12  
Ікар / Icarus (2017) AVC Ukr | Sub Ukr

Ікар / Icarus (2017) AVC Ukr | Sub Ukr


Жанр: документальний, трилер
Країна: США



Кінокомпанія: Netflix
Режисер: Брайан Фоґель
Актори: Брайан Фоґель, Григорій Михайлович Родченков та інші

Сюжет:
Режисер стрічки Брайан Фоґель вирішує з'ясувати правду щодо схем вживання допінгу у спорті, але випадкове знайомство з провідним російським вченим перетворює його розповідь з особистого експерименту на геополітичний трилер, в якому фігурують брудна сеча, загадкова смерть та Олімпійське золото. Це стає початком найгучнішого скандалу в історії спорту.


Українською мовою озвучено студією Омікрон спеціально для HURTOM.COM


Тривалість: 02:01:12
Якість: AVC
Відео:
кодек: avc1
розмір кадру: 720x400
бітрейт: 900 кб/с

Аудіо:
мова: українська | Омікрон
переклад: багатоголосий закадровий
кодек: 2.0
бітрейт: 128 кб/с

Субтитри :
мова: українська
тип: програмні (м'які) окремим файлом
формат: *.srt
Скріншоти








Звіт Info

Format : MPEG-4
Codec ID : M4V (isom/avc1/iso6/M4A /M4V /mp42)
File size : 887 MiB
Duration : 2 h 1 min
Overall bit rate mode : Variable
Overall bit rate : 1 023 kb/s
Encoded date : UTC 2017-10-28 16:51:21
Tagged date : UTC 2017-10-28 16:51:21

Video
ID : 1
Format : AVC
Format/Info : Advanced Video Codec
Format profile : [email protected]
Format settings, CABAC : Yes
Format settings, ReFrames : 8 frames
Codec ID : avc1
Codec ID/Info : Advanced Video Coding
Duration : 2 h 1 min
Bit rate : 900 kb/s
Maximum bit rate : 7 258 kb/s
Width : 720 pixels
Height : 400 pixels
Display aspect ratio : 16:9
Frame rate mode : Constant
Frame rate : 23.976 (24000/1001) FPS
Original frame rate : 23.976 (23976/1000) FPS
Color space : YUV
Chroma subsampling : 4:2:0
Bit depth : 8 bits
Scan type : Progressive
Bits/(Pixel*Frame) : 0.130
Stream size : 772 MiB (87%)
Writing library : core 148 r2721kMod 72d53ab
Encoding settings : cabac=1 / ref=8 / deblock=1:0:0 / analyse=0x3:0x133 / me=umh / subme=9 / psy=1 / fade_compensate=0.00 / psy_rd=1.00:0.00 / mixed_ref=1 / me_range=16 / chroma_me=1 / trellis=2 / 8x8dct=1 / cqm=0 / deadzone=21,11 / fast_pskip=1 / chroma_qp_offset=-2 / threads=5 / lookahead_threads=1 / sliced_threads=0 / nr=0 / decimate=1 / interlaced=0 / bluray_compat=0 / constrained_intra=0 / fgo=0 / bframes=3 / b_pyramid=2 / b_adapt=2 / b_bias=0 / direct=3 / weightb=1 / open_gop=0 / weightp=2 / keyint=250 / keyint_min=25 / scenecut=40 / intra_refresh=0 / rc_lookahead=60 / rc=abr / mbtree=1 / bitrate=900 / ratetol=1.0 / qcomp=0.60 / qpmin=0 / qpmax=69 / qpstep=4 / ip_ratio=1.40 / aq=1:1.00
Encoded date : UTC 2017-10-28 16:51:21
Tagged date : UTC 2017-10-28 16:51:43

Audio
ID : 2
Format :
Format/Info : Advanced Audio Codec
Format profile : LC
Codec ID : 40
Duration : 2 h 1 min
Bit rate mode : Variable
Bit rate : 128 kb/s
Maximum bit rate : 138 kb/s
Channel(s) : 2 channels
Channel positions : Front: L R
Sampling rate : 48.0 kHz
Frame rate : 46.875 FPS (1024 spf)
Compression mode : Lossy
Stream size : 111 MiB (13%)
Encoded date : UTC 2017-10-28 15:15:20
Tagged date : UTC 2017-10-28 16:51:43


Авторський реліз (завантажувати можна без реєстрації)
 Трекер:    Зареєстрований   

Завантажити / скачати торрент



відео для новачків



 Зареєстрований:   2017-10-30 18:12
 Розмір:   887 MB 
 Оцінка:   9.5/10 (Голосів: 27)
   
Men1990 
Свій


З нами з: 24.07.10
Востаннє: 29.03.19
Повідомлень: 122

2017-10-30 21:01  
Стрічка про російську "велич" з підміною сечі?
ne4ubo 
Новенький


З нами з: 04.11.14
Востаннє: 09.04.19
Повідомлень: 16

2017-10-30 23:45  
Men1990 написано:
Стрічка про російську "велич" з підміною сечі?

саме так

PUMAUA 
Свій


З нами з: 07.11.09
Востаннє: 18.04.19
Повідомлень: 83

2017-10-31 11:41  
Міжнародний олімпійський комітет не менш корумпований ніж "Велика Духовна".
і\Шкода спортсменів які змушені змагатися з цими аморальними, безсовісними і накачаними анаболіками істотами яких чомусь називають спортменами.

Форкуш 
VIP


З нами з: 03.02.10
Востаннє: 19.04.19
Повідомлень: 2397

2017-10-31 19:30  
Суперове кіно. Але світ (в т.ч. МОК) скочується до часів роману Орвела. І це сумно...
Сінс 
Частий відвідувач


З нами з: 12.05.14
Востаннє: 16.04.19
Повідомлень: 31

2018-03-06 16:15  
дякую, фільм дуже міцний!
pangena 
Новенький


З нами з: 23.03.16
Востаннє: 05.04.19
Повідомлень: 17

2018-03-07 14:00  
Дякую, дотепер бачив лише трейлер російською, а тут повний фільм з якісною озвучкою.
Yarik M 
VIP


З нами з: 25.10.12
Востаннє: 18.04.19
Повідомлень: 513

2018-03-07 20:25  
"Оскар" привів мене сюди. Перегляну на дозвіллі.
Yarik M 
VIP


З нами з: 25.10.12
Востаннє: 18.04.19
Повідомлень: 513

2018-03-11 10:08  
Цікава документалка. Починається з однієї теми, і по ходу розвитку подій, переходить в зовсім іншу тему, але в межах встановленого предмету дослідження. Подача матеріалу сподобалась. Тепер ясно яким саме чином "вєлікая і нєаб'ятная" здобувала олімпійські медалі... 8/10.
tadescu 
Частий відвідувач


З нами з: 02.01.15
Востаннє: 21.02.19
Повідомлень: 30

2018-03-24 21:19  
УХ! Потужний фільм, дякую!
nosferatumes 
Свій


З нами з: 12.10.16
Востаннє: 18.04.19
Повідомлень: 58

2018-05-03 09:55  
Гарно знята документалка. Знав, що таке відбувається у професійному спорті, але щоб у таких масштабах не підозрював. Від усвідомлення цього факту стає зрозуміло, що професійний спорт це лише грошовий еквівалент товстосумів і ніякого відношення до справжніх змагань (у моєму розумінні) він не має.
Стало ще прикріше коли показали, що ця стероїдна зараза дісталася і до аматорських велоперегонів
Однозначно правда буває гіркою. Автору дякую, чудовий реліз 10/10.

EvGaS 
Відео Гуртом - субтитрування
Відео Гуртом - субтитрування


З нами з: 27.02.12
Востаннє: 19.04.19
Повідомлень: 5596

2019-01-13 09:31  
олімпійські змагання = обдовбані наркомани
як і усі інші великі спорт.змагання
і нехай мене пробачать ті одиниці чесних спортсменів

Враження:
https://toloka.to/t84939#1060093

Ваш часовий пояс: GMT + 2 Години

Нова тема   Відповісти