Ікар / Icarus (2017) 720p Ukr/Eng | Sub Ukr/Eng

Нові коментарі

Нова тема   Відповісти
Автор Повідомлення
Omikron 
VIP


З нами з: 03.01.12
Востаннє: 01.09.18
Повідомлень: 327

2017-10-30 17:05  
Ікар / Icarus (2017) 720p Ukr/Eng | Sub Ukr/Eng

Ікар / Icarus (2017) 720p Ukr/Eng | Sub Ukr/Eng


Жанр: документальний, трилер
Країна: США



Кінокомпанія: Netflix
Режисер: Брайан Фоґель
Актори: Брайан Фоґель, Григорій Михайлович Родченков та інші

Сюжет:
Режисер стрічки Брайан Фоґель вирішує з'ясувати правду щодо схем вживання допінгу у спорті, але випадкове знайомство з провідним російським вченим перетворює його розповідь з особистого експерименту на геополітичний трилер, в якому фігурують брудна сеча, загадкова смерть та Олімпійське золото. Це стає початком найгучнішого скандалу в історії спорту.


Українською мовою озвучено студією Омікрон спеціально для HURTOM.COM


Тривалість: 02:01:12
Якість: 720p
Відео:
кодек:
розмір кадру: 1280x720
бітрейт: 3571 кб/с

Аудіо # 1:
мова: українська | Омікрон
переклад: багатоголосий закадровий
кодек: 5.1
бітрейт: 384 кб/с

Аудіо # 2:
мова: англійська
переклад: оригінал
кодек: 5.1
бітрейт: 384 кб/с

Субтитри # 1:
мова: українська
тип: програмні (м'які)
формат: *.srt

Субтитри # 2:
мова: англійська
тип: програмні (м'які)
формат: *.srt
Скріншоти








Звіт Info

Format :
Format version : Version 4 / Version 2
File size : 3.68 GiB
Duration : 2 h 1 min
Overall bit rate : 4 341 kb/s
Encoded date : UTC 2017-10-28 15:03:52
Writing application : v9.9.0 ('Pick Up') 64bit
Writing library : libebml v1.3.4 + v1.4.5

Video
ID : 1
Format : AVC
Format/Info : Advanced Video Codec
Format profile : [email protected]
Format settings, CABAC : Yes
Format settings, ReFrames : 9 frames
Codec ID : V_MPEG4/ISO/AVC
Duration : 2 h 1 min
Bit rate : 3 571 kb/s
Width : 1 280 pixels
Height : 720 pixels
Display aspect ratio : 16:9
Frame rate mode : Constant
Frame rate : 23.976 (24000/1001) FPS
Color space : YUV
Chroma subsampling : 4:2:0
Bit depth : 8 bits
Scan type : Progressive
Bits/(Pixel*Frame) : 0.162
Stream size : 3.02 GiB (82%)
Writing library : core 152 r2851 ba24899
Encoding settings : cabac=1 / ref=9 / deblock=1:-3:-3 / analyse=0x3:0x133 / me=umh / subme=10 / psy=1 / psy_rd=1.00:0.15 / mixed_ref=1 / me_range=24 / chroma_me=1 / trellis=2 / 8x8dct=1 / cqm=0 / deadzone=21,11 / fast_pskip=0 / chroma_qp_offset=-2 / threads=12 / lookahead_threads=2 / sliced_threads=0 / nr=0 / decimate=1 / interlaced=0 / bluray_compat=0 / constrained_intra=0 / bframes=8 / b_pyramid=2 / b_adapt=2 / b_bias=0 / direct=3 / weightb=1 / open_gop=0 / weightp=2 / keyint=240 / keyint_min=23 / scenecut=40 / intra_refresh=0 / rc_lookahead=60 / rc=crf / mbtree=1 / crf=18.0 / qcomp=0.60 / qpmin=0 / qpmax=69 / qpstep=4 / ip_ratio=1.40 / aq=3:0.80
Language : English
Default : Yes
Forced : No

Audio #1
ID : 2
Format : AC-3
Format/Info : Audio Coding 3
Mode extension : CM (complete main)
Format settings, Endianness : Big
Codec ID : A_AC3
Duration : 2 h 1 min
Bit rate mode : Constant
Bit rate : 384 kb/s
Channel(s) : 6 channels
Channel positions : Front: L C R, Side: L R, LFE
Sampling rate : 48.0 kHz
Frame rate : 31.250 FPS (1536 spf)
Compression mode : Lossy
Stream size : 333 MiB (9%)
Title : MVO Omikron studio
Language : Ukrainian
Default : Yes
Forced : No

Audio #2
ID : 3
Format : AC-3
Format/Info : Audio Coding 3
Mode extension : CM (complete main)
Format settings, Endianness : Big
Codec ID : A_AC3
Duration : 2 h 1 min
Bit rate mode : Constant
Bit rate : 384 kb/s
Channel(s) : 6 channels
Channel positions : Front: L C R, Side: L R, LFE
Sampling rate : 48.0 kHz
Frame rate : 31.250 FPS (1536 spf)
Compression mode : Lossy
Stream size : 333 MiB (9%)
Language : English
Default : No
Forced : No

Text #1
ID : 4
Format : UTF-8
Codec ID : S_TEXT/UTF8
Codec ID/Info : UTF-8 Plain Text
Duration : 1 h 57 min
Bit rate : 130 b/s
Count of elements : 1948
Stream size : 112 KiB (0%)
Language : Ukrainian
Default : No
Forced : No

Text #2
ID : 5
Format : UTF-8
Codec ID : S_TEXT/UTF8
Codec ID/Info : UTF-8 Plain Text
Duration : 1 h 53 min
Bit rate : 90 b/s
Count of elements : 1849
Stream size : 75.7 KiB (0%)
Language : English
Default : No
Forced : No


Авторський реліз (завантажувати можна без реєстрації)
 Трекер:    Зареєстрований   

Завантажити / скачати фільм українською



відео для новачків



 Зареєстрований:   2017-10-30 17:05
 Розмір:   3.68 GB 
 Оцінка фільму:   9.9/10 (Голосів: 21)
   
bogd_b 
Свій


З нами з: 09.01.12
Востаннє: 16.02.19
Повідомлень: 123

2018-05-05 21:19  
Цікавий, 9/10.
EvGaS 
Відео Гуртом - субтитрування
Відео Гуртом - субтитрування


З нами з: 27.02.12
Востаннє: 19.02.19
Повідомлень: 5555

2019-01-13 08:28  
олімпійські змагання = обдовбані наркомани
як і усі інші великі спорт.змагання
і нехай мене пробачать ті одиниці чесних спортсменів

Критика:
https://toloka.to/t84939#1060093

Ваш часовий пояс: GMT + 2 Години

Нова тема   Відповісти