Ікар / Icarus (2017) 1080p Ukr/Eng | Sub Ukr/Eng

Нові коментарі

Нова тема   Відповісти
Автор Повідомлення
Omikron 
VIP


З нами з: 03.01.12
Востаннє: 18.06.19
Повідомлень: 327

2017-10-30 18:01  
Ікар / Icarus (2017) 1080p Ukr/Eng | Sub Ukr/Eng

Ікар / Icarus (2017) 1080p Ukr/Eng | Sub Ukr/Eng


Жанр: документальний, трилер
Країна: США



Кінокомпанія: Netflix
Режисер: Брайан Фоґель
Актори: Брайан Фоґель, Григорій Михайлович Родченков та інші

Сюжет:
Режисер стрічки Брайан Фоґель вирішує з'ясувати правду щодо схем вживання допінгу у спорті, але випадкове знайомство з провідним російським вченим перетворює його розповідь з особистого експерименту на геополітичний трилер, в якому фігурують брудна сеча, загадкова смерть та Олімпійське золото. Це стає початком найгучнішого скандалу в історії спорту.


Українською мовою озвучено студією Омікрон спеціально для HURTOM.COM


Тривалість: 02:01:12
Якість: 1080p
Відео:
кодек:
розмір кадру: 1920x1080
бітрейт: 9899 кб/с

Аудіо # 1:
мова: українська | Омікрон
переклад: багатоголосий закадровий
кодек: 5.1
бітрейт: 384 кб/с

Аудіо # 2:
мова: англійська
переклад: оригінал
кодек: 5.1
бітрейт: 384 кб/с

Субтитри # 1:
мова: українська
тип: програмні (м'які)
формат: *.srt

Субтитри # 2:
мова: англійська
тип: програмні (м'які)
формат: *.srt
Скріншоти








Звіт Info

Format :
Format version : Version 4 / Version 2
File size : 9.03 GiB
Duration : 2 h 1 min
Overall bit rate : 10.7 Mb/s
Encoded date : UTC 2017-10-28 14:54:15
Writing application : v9.9.0 ('Pick Up') 64bit
Writing library : libebml v1.3.4 + v1.4.5

Video
ID : 1
Format : AVC
Format/Info : Advanced Video Codec
Format profile : [email protected]
Format settings, CABAC : Yes
Format settings, ReFrames : 4 frames
Codec ID : V_MPEG4/ISO/AVC
Duration : 2 h 1 min
Bit rate : 9 899 kb/s
Width : 1 920 pixels
Height : 1 080 pixels
Display aspect ratio : 16:9
Frame rate mode : Constant
Frame rate : 23.976 (24000/1001) FPS
Color space : YUV
Chroma subsampling : 4:2:0
Bit depth : 8 bits
Scan type : Progressive
Bits/(Pixel*Frame) : 0.199
Stream size : 8.38 GiB (93%)
Writing library : core 152 r2851 ba24899
Encoding settings : cabac=1 / ref=4 / deblock=1:-3:-3 / analyse=0x3:0x113 / me=umh / subme=8 / psy=1 / psy_rd=1.00:0.15 / mixed_ref=1 / me_range=16 / chroma_me=1 / trellis=2 / 8x8dct=1 / cqm=0 / deadzone=21,11 / fast_pskip=0 / chroma_qp_offset=-2 / threads=12 / lookahead_threads=2 / sliced_threads=0 / nr=0 / decimate=1 / interlaced=0 / bluray_compat=0 / constrained_intra=0 / bframes=3 / b_pyramid=2 / b_adapt=1 / b_bias=0 / direct=3 / weightb=1 / open_gop=0 / weightp=2 / keyint=240 / keyint_min=23 / scenecut=40 / intra_refresh=0 / rc_lookahead=50 / rc=crf / mbtree=1 / crf=17.0 / qcomp=0.60 / qpmin=0 / qpmax=69 / qpstep=4 / ip_ratio=1.40 / aq=3:0.80
Language : English
Default : Yes
Forced : No

Audio #1
ID : 2
Format : AC-3
Format/Info : Audio Coding 3
Mode extension : CM (complete main)
Format settings, Endianness : Big
Codec ID : A_AC3
Duration : 2 h 1 min
Bit rate mode : Constant
Bit rate : 384 kb/s
Channel(s) : 6 channels
Channel positions : Front: L C R, Side: L R, LFE
Sampling rate : 48.0 kHz
Frame rate : 31.250 FPS (1536 spf)
Compression mode : Lossy
Stream size : 333 MiB (4%)
Title : MVO Omikron studio
Language : Ukrainian
Default : Yes
Forced : No

Audio #2
ID : 3
Format : AC-3
Format/Info : Audio Coding 3
Mode extension : CM (complete main)
Format settings, Endianness : Big
Codec ID : A_AC3
Duration : 2 h 1 min
Bit rate mode : Constant
Bit rate : 384 kb/s
Channel(s) : 6 channels
Channel positions : Front: L C R, Side: L R, LFE
Sampling rate : 48.0 kHz
Frame rate : 31.250 FPS (1536 spf)
Compression mode : Lossy
Stream size : 333 MiB (4%)
Language : English
Default : No
Forced : No

Text #1
ID : 4
Format : UTF-8
Codec ID : S_TEXT/UTF8
Codec ID/Info : UTF-8 Plain Text
Duration : 1 h 57 min
Bit rate : 130 b/s
Count of elements : 1948
Stream size : 112 KiB (0%)
Language : Ukrainian
Default : No
Forced : No

Text #2
ID : 5
Format : UTF-8
Codec ID : S_TEXT/UTF8
Codec ID/Info : UTF-8 Plain Text
Duration : 1 h 53 min
Bit rate : 90 b/s
Count of elements : 1849
Stream size : 75.7 KiB (0%)
Language : English
Default : No
Forced : No


Авторський реліз (завантажувати можна без реєстрації)
 Трекер:    Зареєстрований   

Завантажити / скачати фільм українською



відео для новачків



 Зареєстрований:   2017-10-30 18:01
 Розмір:   9.03 GB 
 Оцінка фільму:   9.9/10 (Голосів: 23)
   
bot 
робот


З нами з: 30.09.07
Востаннє: 26.05.05
Повідомлень: 21819

2017-10-30 18:14  
Тему перенесено з Ріпи від Омікрону до форуму Документальні фільми в HD


Omikron

Jogino 
Частий відвідувач


З нами з: 21.04.13
Востаннє: 25.08.19
Повідомлень: 30

2017-11-10 22:49  
Чорт забирай, я просто в шоці. Це один з кращих фільмів які я бачив. Вражає кмітливість Радченка. Гадаю він ще на етапі допомоги з програмою підготовки до велогонки вже знав, що йому потрібна буде допомога журналіста для втечі до США. Він усе продумав вчасно, інакше, ймовірно, його б спіткала доля Камаєва. Жінка зробила помилку не поїхавши з ним, зараз без паспортів уже не випустять.
Proto67 
Новенький


З нами з: 08.09.14
Востаннє: 24.08.19
Повідомлень: 9

2018-01-12 13:31  
Дякую за реліз. Питання : навіщо в такій документалці звук 5.1 ?
Fraunhofer 
Частий відвідувач


З нами з: 08.01.12
Востаннє: 23.08.19
Повідомлень: 47

2018-02-16 09:14  
Велике дякую за субтитри. Одне тільки зауваження: Паралімпійські ігри, а не Параолімпійські.
EvGaS 
Відео Гуртом - субтитрування
Відео Гуртом - субтитрування


З нами з: 27.02.12
Востаннє: 31.07.19
Повідомлень: 5674

2019-01-13 09:27  
Досі з того що бачив — одне з найбільш сильних (псевдо)журналістських/документальних розслідувань. Принаймні, свіжим слідом, а не чогось архівного.
Куди там тому Голівудові, у дійсності все значно сильніш закручено. Можете додумати усе що було спущене «за кадр» або переінтерпретоване для того щоб його можна було показати на екранах.

Ну й ще показовість людського лицемірства і корупції найвищих щабелів: кожна валика машина цікавиться лише власними інтересами — у деякому сенсі маленьку людину пережували, перемололи й виплюнули.

Найцікавіші тези:
хочеш результатів — ковтай та колися так, щоб аж не було куди колоти (буквально — нікуди)
топ-спортсмени = наркомани
не пійманий — не злодій допінгіст
якщо потрібен допінг — звертайся до антидопінгового нагляду (для боротьби з корупцією звертайся до корупціонерів)
уся держава Московія і зокрема лідери — підтримують і фінансують допінг (доведено)
минулі олімпіади Московії були на тотальному допінгу (доведено)
уся збірна усіх спортсменів з Московії — на допінгу без виключень (доведено)
орган з нагляду за допінгом довів і запропонував відповідну міру покарання збірної як виключення — корупція вищих щабелів спорту перемогла (ставлення «ну то й що», це все наклеп і побрехеньки)
у Московії забагато раптових природніх смертей у незручних для режиму людей (куля на мості коло Кремлю - це теж причина природньої смерті)
усе журналістське розслідування не добилося справедливості, і як ефект є лише загальносвітове розчарування людей, життя й кар’єри людей, які присвятили справу свого життя принципу контролю за чесну боротьбу — просто в ніщо, їх найбільш шкода
як мала людина головний герой більше втратив, аніж отримав за боротьбу за справедливість (показовою є навіть ненависть колег, яким потрібно було розжовувати прямо в кадрі що головний фігурант ризикував накласти головою щоб вони дізналися)
радянська система в’язниця/дурка/гулаг-констр.бюро — діє у Московії й донині (наочно й буквально)

Єдине, що ми можемо зробити самі — це скоригувати власне сприйняття, і поки цю істину не сприйматиме більшість людей, з мертвого місця стан справ не зрушить:

олімпійські змагання = обдовбані наркомани
як і усі інші великі спорт.змагання
і нехай мене пробачать ті одиниці чесних спортсменів

portsmuth 
Частий відвідувач


З нами з: 10.06.14
Востаннє: 21.08.19
Повідомлень: 26

2019-05-06 15:34  
Прекрасний фільм! Один з найкращих документальних фільмів, які я бачив)))) Просто бомба!!!
Ваш часовий пояс: GMT + 2 Години

Нова тема   Відповісти