Щенячий патруль / PAW Patrol (Сезон 3) (2016) 720p Ukr/Eng | sub Eng

Нові коментарі

Нова тема   Відповісти
Автор Повідомлення
sergiyko.5 
Забанено
Забанено


З нами з: 25.02.16
Востаннє: 29.10.20
Повідомлень: 3648

2017-10-29 11:27  


Щенячий патруль / PAW Patrol (Сезон 3) (2016) 720p Ukr/Eng | sub Eng

Щенячий патруль / PAW Patrol (Сезон 3) (2016) 720p Ukr/Eng | sub Eng

Жанр: дитячий, пригоди
Країна: Канада, США
Режисер: Кейт Чепмен

Сюжет:
Зік Райдер - десятирічний хлопчик, талановитий не по роках. Він відмінно розбирається в електроніці та техніці і вміло нею користається. Його життя насичене і повне безстрашних пригод. Разом з шістьма веселими і хоробрими щенятами він створив відважну команду під назвою «Щенячий патруль».




Тривалість: 1 серія: 23:00 (цілком серій: 26)

Якість:

Відео: кодек: розмір кадру: 1280x718 бітрейт: 3900 кб/с
Аудіо # 1: мова: українська переклад: професійний дубльований кодек: 2.0 бітрейт: 192 кб/с
Аудіо # 2: мова: англійська переклад: оригінал кодек: 2.0 бітрейт: 160 кб/с
Джерело озвучення:
Субтитри: мова: англійська тип: програмні (м'які) формат: *.srt
Перелік серій
01 Цуценята знаходять джина - Цуценята рятують канатохідця
02 Цуценята рятують золото - Цуценята рятують патрульний автобус
03 Щенята рятують футбол - Цуценята рятують щасливий нашийник
04 Щенята рятують Алексів міні-патруль - Щенята рятують втрачений зуб
05 Летучи цуценята
06 Щенята рятують свято друзів
07 Цуцики рятують Аполо - Цуценята рятують бегемотів
08 Щенята рятують відважного Денні Екс - Щенята у халепі
09 Щенята рятують дракона - Щенята рятують трьох поросят
10 Щенята рятують смердючу квітку - Цуценята рятують мавпонавта
11 Щенята рятують білих медведів - Щеня в овечий шкурі
12 Щенята рятують шкільний автобус - Цуценята рятують співочих пташок
13 Щенята рятують старого Трасті - Щенята рятують поні
14 Цуценята рятують робозавра - Щенята рятують кінофестиваль
15 Новий член команди
16 Щенята ледве рятують Денні - Щенята рятують тюльпани мера Гудвей
17 Зіркові щенята - Щенята рятують спортивне свято
18 Щенята у джемі - Щенята рятують свиню віндсерфера
19 Щенята гігантські овочі - Щенята рятують космоіграшку
20 Щенята зустрічають скунса - Щенята і розваги з китами
21 Русолинята рятують палтусів - Щенята і папуга
22 Щенята і свято зимового дива
23 Щенята рятують планеристів-палтусів - Щенята рятують літак
24 Щенята рятують гігантську рослину - Щенята прилипають
25 Щенята піднімають автобазу - Щенята рятують ворон
26 Щенята рятують літаючих друзів - Щенята рятують супутник
Інформація про файл:
General
Unique ID : 176643639223056401488690438302427038617 (0x84E453D2397BD1DCBA39D1403ABCC399)
Complete name : E:\MULTFILMS\Paw Patrol S03 720p \Paw.Patrol.S03E01.Pups Find a Genie-Pups Save a Tightrope Walker.720p..Ukr.Eng.
Format :
Format version : Version 4 / Version 2
File size : 714 MiB
Duration : 23 min 22 s
Overall bit rate : 4 271 kb/s
Movie name : Paw Patrol S03 720p by sergiyko
Encoded date : UTC 2017-10-29 07:36:53
Writing application : v17.0.0 ('Be Ur Friend') 64-bit
Writing library : libebml v1.3.5 + v1.4.8
Cover : Yes
Attachments : cover.jpg

Video
ID : 1
Format : AVC
Format/Info : Advanced Video Codec
Format profile : [email protected]
Format settings, CABAC : No
Format settings, RefFrames : 2 frames
Codec ID : V_MPEG4/ISO/AVC
Duration : 23 min 22 s
Bit rate : 3 919 kb/s
Width : 1 280 pixels
Height : 718 pixels
Display aspect ratio : 16:9
Frame rate mode : Constant
Frame rate : 23.976 (24000/1001) FPS
Color space : YUV
Chroma subsampling : 4:2:0
Bit depth : 8 bits
Scan type : Progressive
Bits/(Pixel*Frame) : 0.178
Stream size : 655 MiB (92%)
Title : S03E01 Pups Find a Genie-Pups Save a Tightrope Walker
Language : English
Default : Yes
Forced : No
Color range : Limited
Color primaries : BT.709
Transfer characteristics : BT.709
Matrix coefficients : BT.709

Audio #1
ID : 2
Format : AC-3
Format/Info : Audio Coding 3
Format settings, Endianness : Big
Codec ID : A_AC3
Duration : 23 min 22 s
Bit rate mode : Constant
Bit rate : 192 kb/s
Channel(s) : 2 channels
Channel positions : Front: L R
Sampling rate : 48.0 kHz
Frame rate : 31.250 FPS (1536 SPF)
Bit depth : 16 bits
Compression mode : Lossy
Stream size : 32.1 MiB (4%)
Title : DUB 2ch | ПлюсПлюс
Language : Ukrainian
Service kind : Complete Main
Default : Yes
Forced : Yes

Audio #2
ID : 3
Format :
Format/Info : Advanced Audio Codec
Format profile : LC
Codec ID : A_AAC
Duration : 23 min 22 s
Bit rate : 157 kb/s
Channel(s) : 2 channels
Channel positions : Front: L R
Sampling rate : 48.0 kHz
Frame rate : 46.875 FPS (1024 SPF)
Compression mode : Lossy
Stream size : 26.2 MiB (4%)
Title : Original
Language : English
Default : No
Forced : No

Text
ID : 4
Format : UTF-8
Codec ID : S_TEXT/UTF8
Codec ID/Info : UTF-8 Plain Text
Duration : 22 min 58 s
Bit rate : 111 b/s
Count of elements : 522
Stream size : 18.7 KiB (0%)
Language : English
Default : No
Forced : No
Скріншоти:


Запис/зведення: sergiyko


Бронзовий реліз (на рейтинг впливає 75% завантаженого)
 Трекер:    Зареєстрований   

Завантажити / скачати мультфільм українською



відео для новачків



 Зареєстрований:   2017-11-22 23:41
 Розмір:   18.54 GB 
 Оцінка мультсеріалу:   9.8/10 (Голосів: 75)
   
dvd22 
Частий відвідувач


З нами з: 24.01.10
Востаннє: 10.05.20
Повідомлень: 41

2017-10-29 16:17  
Дякую . нарешті доня зможе його подивитись до схочу)))
andik1 
Новенький


З нами з: 10.06.12
Востаннє: 06.04.21
Повідомлень: 14

2017-10-29 18:21  
Коли будуть усі серії Третього сезону?)
sergiyko.5 
Забанено
Забанено


З нами з: 25.02.16
Востаннє: 29.10.20
Повідомлень: 3648

2017-10-29 18:50  
andik1 написано:
Коли будуть усі серії Третього сезону?)

Тоді коли їх покаже телеканал, я запишу, завантажу в інтернеті відео у якості HD, зведу звук і заллю на трекер.

andik1 
Новенький


З нами з: 10.06.12
Востаннє: 06.04.21
Повідомлень: 14

2017-11-06 17:20  
sergiyko.5
Дякую) чекаємо з малечею на продовження)

sergiyko.5 
Забанено
Забанено


З нами з: 25.02.16
Востаннє: 29.10.20
Повідомлень: 3648

2017-11-08 00:29  
Додав 3-11 серії.
tundrik 
Новенький


З нами з: 17.11.16
Востаннє: 28.02.21
Повідомлень: 10

2017-11-11 22:58  
Wide grin
НАРЕШТІ!!!!!! красно дякую!!!

sergiyko.5 
Забанено
Забанено


З нами з: 25.02.16
Востаннє: 29.10.20
Повідомлень: 3648

2017-11-12 13:30  
Додав 12-16 серії.
olsydor 
Новенький


З нами з: 18.08.15
Востаннє: 11.04.21
Повідомлень: 8

2017-11-17 15:22  
Дякую! Ви робите велику справу!
sergiyko.5 
Забанено
Забанено


З нами з: 25.02.16
Востаннє: 29.10.20
Повідомлень: 3648

2017-11-19 16:14  
Додав 17-23 серії.
andik1 
Новенький


З нами з: 10.06.12
Востаннє: 06.04.21
Повідомлень: 14

2017-11-21 12:49  
Дякуємо)
sergiyko.5 
Забанено
Забанено


З нами з: 25.02.16
Востаннє: 29.10.20
Повідомлень: 3648

2017-11-22 23:41  
Додав 23-26 серії. Сезон повний. Приємного перегляду!
MrGauss 
Новенький


З нами з: 01.01.18
Востаннє: 29.03.21
Повідомлень: 2

2018-01-01 20:59  
Дякую!

P.S.: Чи не могли б Ви конвертувати відео в "легший" формат?

срфкьн 
Частий відвідувач


З нами з: 13.06.11
Востаннє: 28.03.21
Повідомлень: 30

2018-01-20 13:25  
Люблю я канал ПлюсПлюс. Хороші добрі мультики, український переклад. Мультфільм цікавий, діти щодня вечором після купання його дивляться. Дуже дякую за роздачу))))
Морж 
Свій


З нами з: 23.01.09
Востаннє: 10.04.21
Повідомлень: 83

2018-03-24 01:15  
О, весь третій сезон, вогонь. Дякую!
oleandre 
Новенький


З нами з: 21.04.14
Востаннє: 12.04.21
Повідомлень: 10

2018-05-10 09:56  
Дякую!
singalen 
Новенький


З нами з: 27.09.15
Востаннє: 03.04.21
Повідомлень: 5

2019-01-14 04:09  
Дякую!

У 25 серії не вистачає англійського треку.
У всіх серій, крім 03 і 25, є зайвих 7 секунд на початку і 6 наприкінці.

Я пережмакав у 1024:576 для себе і обрізав зайві кадри, можу поділитися скриптом.

Окремо 25у серію шукати не став, залишу це бажаючим.

Lion2017 
Новенький


З нами з: 05.12.15
Востаннє: 10.02.21
Повідомлень: 1

2019-02-25 14:08  
Завантажував роздачу заради субтитрів, а виявилось що не співпадають з аудіо. Якщо робите з субтитрами, то робіть щоб було добре, а не для галочки...
Ваш часовий пояс: GMT + 2 Години

Нова тема   Відповісти