Формула 1. Сезон 2017. Етап 18. Гран-Прі Мексики. Кваліфікація (28.10.2017) 720p 50fps Ukr/Eng/Int

Нові коментарі

Нова тема   Відповісти
Останній раз роздавалося KO4EBHUK (2020-10-17)
Автор Повідомлення
sergiyko.5 
VIP


З нами з: 25.02.16
Востаннє: 23.10.20
Повідомлень: 3611

2017-10-28 23:12  
Формула 1. Сезон 2017. Етап 18. Гран-Прі Мексики. Кваліфікація (28.10.2017) 720p 50fps Ukr/Eng/Int

Формула 1. Сезон 2017. Етап 18. Гран-Прі Мексики. Кваліфікація (28.10.2017) 720p 50fps Ukr/Eng/Int

Телеканал: F1UA

Опис:
28 жовтня 2017 року відбулась кваліфікація вісімнадцятого етапу Формули 1 Гран-Прі Мексики.


Склад учасників: Mercedes (Hamilton - Bottas), Red Bull Racing (Ricciardo - Verstappen), Ferrari (Vettel - Räikkönen), Force India (Perez - Ocon), Williams (Massa - Stroll), McLaren (Alonso - Vandoorne), Toro Rosso (Gasly - Hartley), Haas F1 Team (Grosjean - Magnussen), Renault (Hulkenberg - Sainz), Sauber (Ericsson - Wehrlein).

Тривалість: 01:14:21

Відео: кодек: розмір кадру: 1280 х 720 бітрейт: 5500 кб/с частота кадрів: 50 кад/с
Аудіо #1: мова: українська коментар: Максим Подзігун кодек: 5.1 бітрейт: 384 кб/с
Аудіо #2: мова: українська коментар: SkySports F1 HD кодек: 5.1 бітрейт: 384 кб/с
Аудіо #3: мова: українська коментар: - кодек: 5.1 бітрейт: 448 кб/с | Інтершум |
Про файл:
General
Unique ID : 241001841350897320110762521971693477969 (0xB54F442BA5E2D707A4FBCDC63E306051)
Complete name : D:\Torrents\SPORT\Formula 1\F1.2017.18.Mexico.Qualifying.AVC.720p.50fps.Ukr.Eng.Int.
Format :
Format version : Version 4 / Version 2
File size : 3.48 GiB
Duration : 1 h 14 min
Overall bit rate : 6 701 kb/s
Encoded date : UTC 2017-10-29 05:46:36
Writing application : v17.0.0 ('Be Ur Friend') 64-bit
Writing library : libebml v1.3.5 + v1.4.8

Video
ID : 1
Format : AVC
Format/Info : Advanced Video Codec
Format profile : [email protected]
Format settings, CABAC : Yes
Format settings, RefFrames : 4 frames
Codec ID : V_MPEG4/ISO/AVC
Duration : 1 h 14 min
Bit rate : 5 481 kb/s
Width : 1 280 pixels
Height : 720 pixels
Display aspect ratio : 16:9
Frame rate mode : Constant
Frame rate : 50.000 FPS
Color space : YUV
Chroma subsampling : 4:2:0
Bit depth : 8 bits
Scan type : Progressive
Bits/(Pixel*Frame) : 0.119
Stream size : 2.85 GiB (82%)
Language : English
Default : Yes
Forced : No

Audio #1
ID : 2
Format : AC-3
Format/Info : Audio Coding 3
Format settings, Endianness : Big
Codec ID : A_AC3
Duration : 1 h 14 min
Bit rate mode : Constant
Bit rate : 384 kb/s
Channel(s) : 6 channels
Channel positions : Front: L C R, Side: L R, LFE
Sampling rate : 48.0 kHz
Frame rate : 31.250 FPS (1536 SPF)
Bit depth : 16 bits
Compression mode : Lossy
Delay relative to video : 12 ms
Stream size : 204 MiB (6%)
Title : F1UA, Максим Подзігун
Language : Ukrainian
Service kind : Complete Main
Default : Yes
Forced : Yes

Audio #2
ID : 3
Format : AC-3
Format/Info : Audio Coding 3
Format settings, Endianness : Big
Codec ID : A_AC3
Duration : 1 h 14 min
Bit rate mode : Constant
Bit rate : 384 kb/s
Channel(s) : 6 channels
Channel positions : Front: L C R, Side: L R, LFE
Sampling rate : 48.0 kHz
Frame rate : 31.250 FPS (1536 SPF)
Bit depth : 16 bits
Compression mode : Lossy
Delay relative to video : 12 ms
Stream size : 204 MiB (6%)
Title : SkySports F1
Language : English
Service kind : Complete Main
Default : No
Forced : No

Audio #3
ID : 4
Format : AC-3
Format/Info : Audio Coding 3
Format settings, Endianness : Big
Codec ID : A_AC3
Duration : 1 h 14 min
Bit rate mode : Constant
Bit rate : 448 kb/s
Channel(s) : 6 channels
Channel positions : Front: L C R, Side: L R, LFE
Sampling rate : 48.0 kHz
Frame rate : 31.250 FPS (1536 SPF)
Bit depth : 16 bits
Compression mode : Lossy
Delay relative to video : 12 ms
Stream size : 238 MiB (7%)
Title : Natural Sounds
Service kind : Complete Main
Default : No
Forced : No
Скріншоти:


Запис/ріп: Shewa1


 Трекер:    Зареєстрований   

Завантажити / скачати торрент



відео для новачків



 Зареєстрований:   2017-10-29 09:00
 Розмір:   3.48 GB 
 Оцінка:   10/10 (Голосів: 5)
   
sergiyko.5 
VIP


З нами з: 25.02.16
Востаннє: 23.10.20
Повідомлень: 3611

2017-10-29 09:02  
Торент оновлено, відео та аудіо набагато кращої якості.
Ваш часовий пояс: GMT + 2 Години

Нова тема   Відповісти