Пастка / Get Out (2017) Remux 1080p Ukr/Eng | Sub Eng

Нові коментарі

Нова тема   Відповісти
Автор Повідомлення
IronBee 
Свій


З нами з: 08.02.10
Востаннє: 14.01.18
Повідомлень: 93

2017-10-28 19:19  
Пастка / Get Out (2017) Remux 1080p Ukr/Eng | Sub Eng

Пастка / Get Out (2017) Remux 1080p Ukr/Eng | Sub Eng


Жанр: детектив, трилер, жахи
Країна: США



Кінокомпанія: Universal Pictures, Blumhouse Productions
Режисер: Джордан Піл
Актори: Деніел Калуя, Еллісон Вільямс, Кетрін Кінер, Бредлі Вітфорд, Калеб Лендрі Джонс, Маркус Хендерсон, Бетті Гебріел, Кіт Стенфілд, Стівен Рут, Ліл Рел Хаурі

Сюжет:
Кріс - простий темношкірий хлопець, який вже деякий час зустрічається з симпатичною і веселою дівчиною Роуз. Хлопець отримує запрошення від батьків своєї дівчини погостювати в сімейному маєтку. Кріс відчуває себе досить комфортно в сім'ї Роуз, єдине що його бентежить - дуже дивна поведінка темношкірих, які живуть в цьому невеликому містечку. Всі вони постійно мовчать і роблять незрозумілі речі. Згодом хлопець з’ясовує, що вечірка в заміському маєтку перетворюється на моторошне дійство. Гості поводяться дивно, а господарі практикують гіпноз. Їм потрібна нова жертва – він.


Тривалість: 01:44:05
Якість: Remux
Відео:
кодек:
розмір кадру: 1920 х 1080
бітрейт: 29,2 Mб/с

Аудіо # 1:
мова: українська (Itunes)
переклад: професійний дубльований
кодек: 2.0
бітрейт: 192 кб/с

Аудіо # 2:
мова: англійська
переклад: оригінал
кодек: -HD MA 5.1
бітрейт: 3660 кб/с

Субтитри:
мова: українська (форсовані)
тип: програмні (м'які)
формат: *.srt

Субтитри:(2-3)
мова: англійська (повні, SHD)
тип: пререндерні
формат: *.PGS
Info
General
Unique ID : 175801032762365899155669551661550931260 (0x84420C1D7FD4B61FA05BCDEE93F00D3C)
Complete name : D:\Films\Пастка Get Out (2017) Remux 1080p UkrEng Sub Eng [Hurtom].
Format :
Format version : Version 4 / Version 2
File size : 24.1 GiB
Duration : 1 h 44 min
Overall bit rate mode : Variable
Overall bit rate : 33.1 Mb/s
Encoded date : UTC 2017-10-28 15:53:06
Writing application : mkvmerge v17.0.0 ('Be Ur Friend') 64-bit
Writing library : libebml v1.3.5 + libmatroska v1.4.8

Video
ID : 1
Format : AVC
Format/Info : Advanced Video Codec
Format profile : [email protected]
Format settings, CABAC : Yes
Format settings, ReFrames : 2 frames
Codec ID : V_MPEG4/ISO/AVC
Duration : 1 h 44 min
Bit rate mode : Variable
Bit rate : 29.2 Mb/s
Width : 1 920 pixels
Height : 1 080 pixels
Display aspect ratio : 16:9
Frame rate mode : Constant
Frame rate : 23.976 (24000/1001) FPS
Color space : YUV
Chroma subsampling : 4:2:0
Bit depth : 8 bits
Scan type : Progressive
Bits/(Pixel*Frame) : 0.588
Stream size : 21.3 GiB (88%)
Default : Yes
Forced : No

Audio #1
ID : 2
Format : AC-3
Format/Info : Audio Coding 3
Mode extension : CM (complete main)
Format settings, Endianness : Big
Codec ID : A_AC3
Duration : 1 h 44 min
Bit rate mode : Constant
Bit rate : 192 kb/s
Channel(s) : 2 channels
Channel positions : Front: L R
Sampling rate : 48.0 kHz
Frame rate : 31.250 FPS (1536 spf)
Bit depth : 16 bits
Compression mode : Lossy
Stream size : 143 MiB (1%)
Language : Ukrainian
Default : Yes
Forced : No

Audio #2
ID : 3
Format :
Format/Info : Digital Theater Systems
Format profile : MA / Core
Mode : 16
Format settings, Endianness : Big
Codec ID : A_DTS
Duration : 1 h 44 min
Bit rate mode : Variable / Constant
Bit rate : 3 660 kb/s / 1 509 kb/s
Channel(s) : 6 channels
Channel positions : Front: L C R, Side: L R, LFE
Sampling rate : 48.0 kHz
Frame rate : 93.750 FPS (512 spf)
Bit depth : 24 bits
Compression mode : Lossless / Lossy
Stream size : 2.66 GiB (11%)
Language : English
Default : No
Forced : No

Text #1
ID : 4
Format : UTF-8
Codec ID : S_TEXT/UTF8
Codec ID/Info : UTF-8 Plain Text
Duration : 1 h 34 min
Bit rate : 0 b/s
Count of elements : 10
Stream size : 390 Bytes (0%)
Language : Ukrainian
Default : Yes
Forced : No

Text #2
ID : 5
Format : PGS
Muxing mode : zlib
Codec ID : S_HDMV/PGS
Codec ID/Info : Picture based subtitle format used on BDs/HD-DVDs
Duration : 1 h 38 min
Bit rate : 36.9 kb/s
Count of elements : 2827
Stream size : 26.1 MiB (0%)
Language : English
Default : No
Forced : No

Text #3
ID : 6
Format : PGS
Muxing mode : zlib
Codec ID : S_HDMV/PGS
Codec ID/Info : Picture based subtitle format used on BDs/HD-DVDs
Duration : 1 h 43 min
Bit rate : 62.3 kb/s
Count of elements : 3142
Stream size : 46.2 MiB (0%)
Language : English
Default : No
Forced : No
Скріншоти



Джерело: &
Особиста оцінка: 10 - без зайвих вагань рекомендую всім!


Золотий реліз (завантажене не впливає на рейтинг)
 Трекер:    Зареєстрований   

Завантажити / скачати фільм українською



відео для новачків



 Зареєстрований:   2017-10-28 19:19
 Розмір:   24.09 GB 
 Оцінка фільму:   8.2/10 (Голосів: 15)
   
Інші релізи
   Пастка / Get Out (2017) 1080p Ukr/Eng | Sub Eng Bod_zik99  14 / 1   11.53 GB   2018-01-06 15:15 
   Пастка / Get Out (2017) 720p Ukr/Eng | Sub Eng Patriot_ukr  32 / 0   3.76 GB   2017-10-25 12:40 
   Пастка / Get Out (2017) legos25  18 / 0   1.37 GB   2017-10-23 23:32 
   Пастка / Get Out (2017) AVC Ukr/Eng | Sub Eng Electroz  50 / 4   1.41 GB   2017-10-23 22:34 
taurus 
Свій


З нами з: 04.04.11
Востаннє: 15.01.18
Повідомлень: 74

2017-10-28 21:03  
У змаганні в поганих перекладах назв фільмів у вітчизняних та російських кінопрокатників бойова нічия
yourgrin 
Новенький


З нами з: 05.03.14
Востаннє: 15.01.18
Повідомлень: 4

2017-10-29 18:43  
Чудовий фільм!
V.i.R.u.S 
Частий відвідувач


З нами з: 19.11.10
Востаннє: 15.01.18
Повідомлень: 28

2017-10-30 19:14  
Класний фільм. Особливо кінцівка, хто бачив зрозуміє))
boombyte 
Частий відвідувач


З нами з: 12.04.14
Востаннє: 01.01.18
Повідомлень: 48

2017-11-16 19:32  
А де вона у тому шоломі?

По фільму--так собі. "Ключ від усіх дверей" краще. Це типу осучаснений варіант.

Спойлер!
Вата не врятує нормально від звуків. Особливо якась синтетична\груба. Тож далі просто лажа.

Uberwinder 
Поважний учасник


З нами з: 18.11.16
Востаннє: 16.01.18
Повідомлень: 184

2018-01-02 21:02  
Чудовий трилер, шкода що таких мало знімають!
Ваш часовий пояс: GMT + 2 Години

Нова тема   Відповісти