Людина-павук: Повернення додому / Spider-Man: Homecoming (2017) Remux 1080p Ukr/Eng | Sub Ukr/Eng

Нові коментарі

Нова тема   Відповісти
Автор Повідомлення
Anonymous 







2017-10-27 10:40  
Людина-павук: Повернення додому / Spider-Man: Homecoming (2017) Remux 1080p Ukr/Eng | Sub Ukr/Eng
Людина-павук: Повернення додому / Spider-Man: Homecoming (2017) Remux 1080p Ukr/Eng | Sub Ukr/Eng
«Коли закінчується одна історія, починається інша»
Інші українські постери:







Жанр: фантастика, бойовик, пригодницький
Країна: США



Кінокомпанія: Columbia Pictures, Marvel Studios, Pascal Pictures
Режисер: Джонатан Вотс / Jon Watts
Актори: Том Голланд / Tom Holland, Майкл Кітон / Michael Keaton, Роберт Дауні (мол.) / Robert Downey Jr., Маріса Томей / Marisa Tomei, Джон Фавро / Jon Favreau, Зендея Коулман / Zendaya Coleman, Дональд Гловер / Donald Glover, Джейкоб Баталон / Jacob Batalon, Лора Гарієр / Laura Harrier, Ґвінет Пелтроу / Gwyneth Paltrow, Тоні Револорі / Tony Revolori та інші

Сюжет:
Після історичної зустрічі з командою Месників Пітер Паркер повертається додому, намагаючись повернутись до нормального життя підлітка під опікою своєї тітки Мей. Але тепер за Пітером наглядає ще дещо... Тоні Старк бачив Людину-Павука у справі і повинен стати його наставником. Коли новий лиходій Стерв'ятник загрожує знищити все, що дороге Пітеру, приходить час довести всім, що таке справжній супергерой.
Офіційні українські трейлери:






Рейтинг MPAA: PG-13 - дітям до 13 років перегляд не бажаний
Вікова категорія: 12+
Тривалість: 02:13:28
Якість: Remux [Blu-ray [EUR]]
Відео:
кодек:
розмір кадру: 1920 х 1080
бітрейт: 24937 кб/с

Аудіо # 1:
мова: українська
переклад: професійний дубльований
кодек: 5.1
бітрейт: 448 кб/с

Аудіо # 2:
мова: англійська
переклад: оригінал
кодек: -HD MA 5.1
бітрейт: 2342 кб/с

Аудіо # 3:
мова: англійська
переклад: оригінал
кодек: 5.1
бітрейт: 448 кб/с

Субтитри # 1:
мова: українська (форсовані)
тип: програмні (м'які)
формат: srt

Субтитри # 2:
мова: українська (повні)
тип: пререндерні
формат: pgs

Субтитри # 3:
мова: англійська
тип: пререндерні
формат: pgs

Присутні поіменовані розділи
Info
Код:
Complete name               : Spider-Man. Homecoming (2017) [Ukr,Eng sub.Ukr,Eng] Remux 1080p [Hurtom].
Format                      :
Format version              : Version 4 / Version 2
File size                   : 26.3 GiB
Duration                    : 2 h 13 min
Overall bit rate mode       : Variable
Overall bit rate            : 28.2 Mb/s
Movie name                  : Людина-павук: Повернення додому / Spider-Man: Homecoming (2017) [Ukr,Eng sub.Ukr,Eng] Remux 1080p [Hurtom]
Released date               : 2017
Writing application         : v17.0.0 ('Be Ur Friend') 64-bit
Writing library             : libebml v1.3.5 + v1.4.8
Cover                       : Yes
Comment                     : http://www.imdb.com/title/tt2250912/
Attachments                 : cover.jpg
ARTIST                      : Том Голланд / Tom Holland, Майкл Кітон / Michael Keaton, Роберт Дауні (мол.) / Robert Downey Jr., Маріса Томей / Marisa Tomei, Джон Фавро / Jon Favreau, Зендея Коулман / Zendaya Coleman, Дональд Гловер / Donald Glover, Джейкоб Баталон / Jacob Batalon, Лора Гарієр / Laura Harrier, Ґвінет Пелтроу / Gwyneth Paltrow, Тоні Револорі / Tony Revolori та інші
DIRECTOR                    : Джонатан Вотс / Jon Watts
GENRE                       : фантастика, бойовик, пригодницький
SYNOPSIS                    : Після історичної зустрічі з командою Месників Пітер Паркер повертається додому, намагаючись повернутись до нормального життя підлітка під опікою своєї тітки Мей. Але тепер за Пітером наглядає ще дещо... Тоні Старк бачив Людину-Павука у справі і повинен стати його наставником. Коли новий лиходій Стерв'ятник загрожує знищити все, що дороге Пітеру, приходить час довести всім, що таке справжній супергерой...
Url                         : https://toloka.to/t84880

Video
ID                          : 1
Format                      : AVC
Format/Info                 : Advanced Video Codec
Format profile              : [email protected]
Format settings             : CABAC / 2 Ref Frames
Format settings, CABAC      : Yes
Format settings, RefFrames  : 2 frames
Format settings, GOP        : M=1, N=10
Codec ID                    : V_MPEG4/ISO/AVC
Duration                    : 2 h 13 min
Bit rate mode               : Variable
Bit rate                    : 24.9 Mb/s
Width                       : 1 920 pixels
Height                      : 1 080 pixels
Display aspect ratio        : 16:9
Frame rate mode             : Constant
Frame rate                  : 23.976 (24000/1001) FPS
Color space                 : YUV
Chroma subsampling          : 4:2:0
Bit depth                   : 8 bits
Scan type                   : Progressive
Bits/(Pixel*Frame)          : 0.502
Stream size                 : 23.2 GiB (88%)
Title                       : Людина-павук: Повернення додому / Spider-Man: Homecoming (2017) Remux [Blu-ray EUR, BlueBird]
Language                    : English
Default                     : Yes
Forced                      : No

Audio #1
ID                          : 2
Format                      : AC-3
Format/Info                 : Audio Coding 3
Format settings, Endianness : Big
Codec ID                    : A_AC3
Duration                    : 2 h 13 min
Bit rate mode               : Constant
Bit rate                    : 448 kb/s
Channel(s)                  : 6 channels
Channel positions           : Front: L C R, Side: L R, LFE
Sampling rate               : 48.0 kHz
Frame rate                  : 31.250 FPS (1536 SPF)
Bit depth                   : 16 bits
Compression mode            : Lossy
Delay relative to video     : 24 ms
Stream size                 : 428 MiB (2%)
Title                       : Dub [Blu-ray EUR] 5.1 448 Kbps
Language                    : Ukrainian
Service kind                : Complete Main
Default                     : Yes
Forced                      : Yes

Audio #2
ID                          : 3
Format                      :
Format/Info                 : Digital Theater Systems
Format profile              : MA / Core
Mode                        : 16
Format settings, Endianness : Big
Codec ID                    : A_DTS
Duration                    : 2 h 13 min
Bit rate mode               : Variable / Constant
Bit rate                    : 2 342 kb/s / 1 509 kb/s
Channel(s)                  : 6 channels
Channel positions           : Front: L C R, Side: L R, LFE
Sampling rate               : 48.0 kHz
Frame rate                  : 93.750 FPS (512 SPF)
Bit depth                   : 16 bits
Compression mode            : Lossless / Lossy
Stream size                 : 2.18 GiB (8%)
Title                       : Original, -HD MA 5.1 2342 Kbps
Language                    : English
Default                     : No
Forced                      : No

Audio #3
ID                          : 4
Format                      : AC-3
Format/Info                 : Audio Coding 3
Format settings, Endianness : Big
Codec ID                    : A_AC3
Duration                    : 2 h 13 min
Bit rate mode               : Constant
Bit rate                    : 448 kb/s
Channel(s)                  : 6 channels
Channel positions           : Front: L C R, Side: L R, LFE
Sampling rate               : 48.0 kHz
Frame rate                  : 31.250 FPS (1536 SPF)
Bit depth                   : 16 bits
Compression mode            : Lossy
Stream size                 : 428 MiB (2%)
Title                       : Original, 5.1 448 Kbps
Language                    : English
Service kind                : Complete Main
Default                     : No
Forced                      : No

Text #1
ID                          : 5
Format                      : UTF-8
Codec ID                    : S_TEXT/UTF8
Codec ID/Info               : UTF-8 Plain Text
Duration                    : 2 h 0 min
Bit rate                    : 1 b/s
Count of elements           : 27
Stream size                 : 1.33 KiB (0%)
Title                       : Ukr forced [Ash61 & igor911]
Language                    : Ukrainian
Default                     : Yes
Forced                      : Yes

Text #2
ID                          : 6
Format                      : PGS
Muxing mode                 : zlib
Codec ID                    : S_HDMV/PGS
Codec ID/Info               : Picture based subtitle format used on BDs/HD-DVDs
Duration                    : 2 h 12 min
Bit rate                    : 34.7 kb/s
Count of elements           : 3643
Stream size                 : 33.0 MiB (0%)
Title                       : Ukr full [Blu-ray EUR]
Language                    : Ukrainian
Default                     : No
Forced                      : No

Text #3
ID                          : 7
Format                      : PGS
Muxing mode                 : zlib
Codec ID                    : S_HDMV/PGS
Codec ID/Info               : Picture based subtitle format used on BDs/HD-DVDs
Duration                    : 2 h 12 min
Bit rate                    : 38.6 kb/s
Count of elements           : 3581
Stream size                 : 36.6 MiB (0%)
Title                       : Eng full
Language                    : English
Default                     : No
Forced                      : No

Menu
00:00:00.000                : en:Stay Tuned
00:00:10.000                : en:Studio Logos
00:00:46.000                : en:Toomes loses a job and gains a new one
00:05:06.000                : en:Marvel Logo
00:05:41.000                : en:a Film by Peter Parker
00:10:04.000                : en:Peter waits the school day out
00:14:42.000                : en:Spider-Man keeps the neighborhood friendly
00:18:15.000                : en:Spider-Man battles the Avengers
00:20:59.000                : en:Peter finds a surprise at home
00:25:53.000                : en:Ned asks for all the details
00:29:19.000                : en:Peter debates bringing Spider-Man to the party
00:32:10.000                : en:Spider-Man chases after a van
00:36:56.000                : en:Tony instructs Peter to stand down
00:39:27.000                : en:Toomes attempts to reason with his crew
00:42:33.000                : en:Ned helps Peter with a shop project
00:46:12.000                : en:Peter rejoins the team
00:50:22.000                : en:Spider-Man makes a new friend while tracking bad guys
00:54:48.000                : en:Spider-Man races back to his team
00:58:57.000                : en:The Decathlon Team celebrates at the Washington Monument
01:05:18.000                : en:Toomes contemplates his recent run of bad luck
01:06:23.000                : en:The Decathlon team is welcomed back as heroes
01:08:48.000                : en:Peter tries out interrogation mode
01:12:11.000                : en:Spider-Man commutes on the ferry
01:19:51.000                : en:Toomes calls for a bigger job
01:20:28.000                : en:Perter faces the consequences of his mistake
01:23:43.000                : en:Peter turns himself around
01:27:05.000                : en:Peter meets Liz's family
01:29:50.000                : en:Toomes gives Peter the Dad talk
01:34:21.000                : en:Peter leaves the dance early
01:36:47.000                : en:Ned gives Spider-Man directions
01:39:28.000                : en:Spider-Man locates the Vulture's lair
01:42:33.000                : en:Peter picks himself up
01:44:52.000                : en:Vulture takes to the sky
01:50:34.000                : en:Spider-Man and Vulture battle
01:54:39.000                : en:Peter says a difficult goodbye
01:56:10.000                : en:The Decathlon Team celebrates their win
01:58:02.000                : en:Tony makes Peter an offer
02:02:26.000                : en:Peter suits up
02:03:04.000                : en:End Credits
02:05:13.000                : en:Toomes encounters a former business partner
02:06:07.000                : en:End Credits Continued
02:12:38.000                : en:Patience


Джерело: &
Компіляція українських форсованих субтитрів: Ash61 та igor911, постер - Ham_R


Золотий реліз (завантажене не впливає на рейтинг)
 Трекер:    Зареєстрований   

Завантажити / скачати фільм українською



відео для новачків



 Зареєстрований:   2017-10-28 15:41
 Розмір:   26.31 GB 
 Оцінка фільму:   6.6/10 (Голосів: 36)
   
Ваш часовий пояс: GMT + 2 Години

Нова тема   Відповісти