Порохова змова (Сезон 1) / Gunpowder (Season 1) (2017) / 720p Ukr/Eng | Sub Eng

Нові коментарі

Нова тема   Відповісти
Автор Повідомлення
Anonymous 







2017-10-25 23:39  
Порохова змова (Сезон 1) / Gunpowder (Season 1) (2017) / 720p Ukr/Eng | Sub Eng



Жанр: драма, історичний
Країна: Велика Британія



Кінокомпанія: Kudos Film and Television, Thriker Films
Режисер: Дж. Блексон / J. Blakeson
Актори: Кіт Герінгтон / Kit Harington, Пітер Маллан / Peter Mullan, Шон Дулі / Shaun Dooley, Марк Гатісс / Mark Gatiss, Дерек Рідделл / Derek Riddell, Роберт Еммс / Robert Emms, Лів Тайлер / Liv Tyler, Едвард Голкрофт / Edward Holcroft, Том Каллен / Tom Cullen, Pedro Casablanc / Pedro Casablanc та інші

Сюжет:
Після смерті королеви на Британський Трон сів король Яків І - чиє правління відзначилось небувалою жорстокістю. Не в силах терпіти нескінченні приниження, противники короля, провінційні англійські католики, організували змову, метою якої було підірвати Палату Лордів та вбити короля Якова I на початку 17 століття.
Цікаві факти
• Пороховою змовою називають спробу англійських католиків підірвати будівлю парламенту і вбити короля Якова I, який симпатизував протестантам.
• Історію Порохової змови та Гая Фокса популяризував комікс " V означає Вендета" Алана Мура і його екранізація.
• У ніч на 5 листопада в Великобританії відзначається Ніч Гая Фокса (або Ніч багать). У цю ніч запалюють багаття, спалюють опудала Гая Фокса і пускають феєрверки.

Вікова категорія: 18+
Тривалість: 1 серія: ~1 година (цілком серій: 3)
Перелік серій
01. Перша серія
02. Друга серія
03. Третя серія
Якість: / 720p
Відео:
кодек:
розмір кадру: 1280 х 534
бітрейт: 1493-3553 кб/с

Аудіо #1:
мова: українська
переклад: багатоголосий закадровий | Студія "Омікрон" на замовлення UA Team
кодек: 2.0
бітрейт: 192 кб/с

Аудіо #2:
мова: англійська
переклад: оригінал
кодек: 2.0 (1 серія) / 2.0 (2-3 серії)
бітрейт: 192 кб/с / 94-253 кб/с

Субтитри: (окремими файлами)
мова: англійська
тип: програмні (м'які)
формат: *.srt
Info
Код:
Complete name               : Gunpowder.S01E03..720p.Ukr.Eng.uateam.
Format                      :
Format version              : Version 4 / Version 2
File size                   : 1.07 GiB
Duration                    : 58 min 46 s
Overall bit rate mode       : Variable
Overall bit rate            : 2 613 kb/s
Movie name                  : Gunpowder.S01E03..720p.Ukr.Eng.uateam.tv
Writing application         : v9.9.0 ('Pick Up') 64bit
Writing library             : libebml v1.3.4 + v1.4.5

Video
ID                          : 1
Format                      : AVC
Format/Info                 : Advanced Video Codec
Format profile              : [email protected]
Format settings             : CABAC / 2 Ref Frames
Format settings, CABAC      : Yes
Format settings, RefFrames  : 2 frames
Codec ID                    : V_MPEG4/ISO/AVC
Duration                    : 58 min 46 s
Bit rate mode               : Variable
Bit rate                    : 2 325 kb/s
Maximum bit rate            : 3 500 kb/s
Width                       : 1 280 pixels
Height                      : 720 pixels
Display aspect ratio        : 16:9
Frame rate mode             : Constant
Frame rate                  : 25.000 FPS
Color space                 : YUV
Chroma subsampling          : 4:2:0
Bit depth                   : 8 bits
Scan type                   : Progressive
Bits/(Pixel*Frame)          : 0.101
Stream size                 : 978 MiB (89%)
Language                    : English
Default                     : Yes
Forced                      : No

Audio #1
ID                          : 2
Format                      : AC-3
Format/Info                 : Audio Coding 3
Format settings, Endianness : Big
Codec ID                    : A_AC3
Duration                    : 58 min 46 s
Bit rate mode               : Constant
Bit rate                    : 192 kb/s
Channel(s)                  : 2 channels
Channel positions           : Front: L R
Sampling rate               : 48.0 kHz
Frame rate                  : 31.250 FPS (1536 SPF)
Bit depth                   : 16 bits
Compression mode            : Lossy
Delay relative to video     : -40 ms
Stream size                 : 80.7 MiB (7%)
Title                       : MVO Omikron studio for UAteam.tv
Language                    : Ukrainian
Service kind                : Complete Main
Default                     : Yes
Forced                      : No

Audio #2
ID                          : 3
Format                      :
Format/Info                 : Advanced Audio Codec
Format profile              : LC
Codec ID                    : A_AAC-2
Duration                    : 58 min 46 s
Bit rate                    : 93.4 kb/s
Channel(s)                  : 2 channels
Channel positions           : Front: L R
Sampling rate               : 48.0 kHz
Frame rate                  : 46.875 FPS (1024 SPF)
Compression mode            : Lossy
Delay relative to video     : -40 ms
Stream size                 : 39.3 MiB (4%)
Language                    : English
Default                     : No
Forced                      : No


Джерело: &

Хочеш і надалі дивитись найкращі серіали українською? Підтримай


Авторський реліз (завантажувати можна без реєстрації)
 Трекер:    Зареєстрований   

Завантажити / скачати серіал українською



відео для новачків



 Зареєстрований:   2017-10-28 09:51
 Розмір:   3.48 GB 
 Оцінка серіалу:   7.3/10 (Голосів: 40)
   
SacredName 
Попереджень: 1
Попереджень: 1 


З нами з: 01.01.17
Востаннє: 27.11.20
Повідомлень: 151

2017-10-26 05:43  
Дякую за реліз. Жаль що серій мало. Юа тім, як завше, на висоті...

Додано через 1 годину 8 хвилин 9 секунд:

Наступні епізоди, згідно звуковиків, в ближчі дні

Estranded 
VIP


З нами з: 09.02.14
Востаннє: 28.11.20
Повідомлень: 1526

2017-10-26 08:31  
Перша серія доволі жорстока! Наче інструкція зі страт... Знято дуже класно - зацікавило.
За основу взяті історичні події, тепер детальніше вивчаю цей період в історії Англії.

armogun 
Попереджень: 1
Попереджень: 1 


З нами з: 04.05.13
Востаннє: 27.11.20
Повідомлень: 708

2017-10-26 18:52  
Порохова змова це - оборонпром
Anonymous 







2017-10-26 19:09  
armogun написано:
Порохова змова це - оборонпром
уточнення
armogun написано:
оборонпром

"оборонпорн" Happy

Hovik 
Частий відвідувач


З нами з: 28.12.15
Востаннє: 03.08.20
Повідомлень: 41

2017-10-26 22:06  
armogun
Happy

Anonymous 







2017-10-28 09:53  
Додано заключні другу та третю серії

Mr_GoldMan 
Новенький


З нами з: 01.12.13
Востаннє: 26.11.20
Повідомлень: 19

2017-11-01 17:12  
1080р буде?
Anonymous 







2017-11-01 17:52  
Mr_GoldMan, я не планую.
FazU 
Частий відвідувач


З нами з: 05.01.16
Востаннє: 21.11.20
Повідомлень: 27

2017-11-12 17:22  
Саби там англійською виключно? Мо хто підкаже українською де завантажити?
Electroz 
Відео Гуртом - підтримка та поширення
Відео Гуртом - підтримка та поширення


З нами з: 18.09.14
Востаннє: 28.11.20
Повідомлень: 4214

2017-11-12 17:37  
FazU
українських субтитрів немає.

Відьмачечок 
Свій


З нами з: 17.05.11
Востаннє: 28.11.20
Повідомлень: 130

2017-12-23 15:28  
Дякую, і серіал і переклад годний
Ваш часовий пояс: GMT + 2 Години

Нова тема   Відповісти