Ворог серед нас (Наднебезпечний) / A Most Wanted Man (2014)

Нові коментарі

Нова тема   Відповісти
Автор Повідомлення
Anonymous 







2017-10-25 09:50  
Ворог серед нас / Наднебезпечний / A Most Wanted Man (2014)

Ворог серед нас (Наднебезпечний) / A Most Wanted Man (2014)


Жанр: трилер, драма, кримінальний
Країна: Велика Британія, США, Німеччина



Кінокомпанія: Lionsgate, Film4, Demarest Films
Режисер: Антон Корбейн / Anton Corbijn
Актори: Філіп Сеймур Гоффман / Philip Seymour Hoffman, Рейчел МакАдамс / Rachel McAdams, Віллем Дефо / Willem Dafoe, Ґрігорій Дабриґін / Grigoriy Dobrygin, Ніна Хосс / Nina Hoss, Робін Райт / Robin Wright, Райнер Бок / Rainer Bock, Даніель Брюль / Daniel Brühl та інші

Сюжет:
Голова секретного підрозділу розвідки отримує завдання знайти небезпечного міжнародного втікача Ісу Карпова, якого з симпатії переховує його адвокат Аннабель. Коли в погоню вступають розвідки інших країн, починається велика шпигунська гра, в якій будь-хто може опинитися наживкою або акулою. А національна безпека нерідко залежить від простих людських почуттів.
Офіційний український трейлер:

Рейтинг MPAA: R - особам до 17 років обов'язкова присутність батьків або дорослого опікуна
Вікова категорія: 16+
Тривалість: 02:02:23
Якість:
Відео:
кодек:
розмір кадру: 720 х 304
бітрейт: 1769 кб/с

Аудіо # 1:
мова: українська
переклад: багатоголосий закадровий
кодек: 2.0
бітрейт: 192 кб/с
Info
Код:
General
Complete name               : A Most Wanted Man (2014) [Ukr] [Hurtom].avi
Format                      : AVI
Format/Info                 : Audio Video Interleave
File size                   : 1.68 GiB
Duration                    : 2 h 2 min
Overall bit rate            : 1 970 kb/s
Movie name                  : Ворог серед нас / Наднебезпечний / A Most Wanted Man (2014) [Ukr]
Genre                       : трилер, драма, кримінальний
Writing application         : VirtualDubModUkr 1.5.10.2 (build 2542/release)
Writing library             : VirtualDubMod build 2542/release
Comment                     : https://toloka.to/t84844

Video
ID                          : 0
Format                      : MPEG-4 Visual
Format profile              : Advanced [email protected]
Format settings             : BVOP1 / Custom Matrix
Format settings, BVOP       : 1
Format settings, QPel       : No
Format settings, GMC        : No warppoints
Format settings, Matrix     : Custom
Codec ID                    :
Codec ID/Hint               :
Duration                    : 2 h 2 min
Bit rate                    : 1 769 kb/s
Width                       : 720 pixels
Height                      : 304 pixels
Display aspect ratio        : 2.35:1
Frame rate                  : 23.976 (24000/1001) FPS
Color space                 : YUV
Chroma subsampling          : 4:2:0
Bit depth                   : 8 bits
Scan type                   : Progressive
Compression mode            : Lossy
Bits/(Pixel*Frame)          : 0.337
Stream size                 : 1.51 GiB (90%)
Writing library             : 65

Audio
ID                          : 1
Format                      : AC-3
Format/Info                 : Audio Coding 3
Format settings, Endianness : Big
Codec ID                    : 2000
Duration                    : 2 h 2 min
Bit rate mode               : Constant
Bit rate                    : 192 kb/s
Channel(s)                  : 2 channels
Channel positions           : Front: L R
Sampling rate               : 48.0 kHz
Frame rate                  : 31.250 FPS (1536 SPF)
Bit depth                   : 16 bits
Compression mode            : Lossy
Stream size                 : 168 MiB (10%)
Alignment                   : Split accross interleaves
Interleave, duration        : 42  ms (1.00 video frame)
Interleave, preload duratio : 500  ms
Title                       : Ukr MVO [Volya Cine+]
Service kind                : Complete Main


Джерело: &
Подяка Sando7 за запис з ТБ, Electroz'у за синхронізацію.


 Трекер:    Зареєстрований   

Завантажити / скачати фільм українською



відео для новачків



 Зареєстрований:   2017-10-25 10:19
 Розмір:   1.68 GB 
 Оцінка фільму:   4.9/10 (Голосів: 20)
   
Ваш часовий пояс: GMT + 2 Години

Нова тема   Відповісти