Затьмарення / Затемнення / Regression (2015)

Нові коментарі

Нова тема   Відповісти
Автор Повідомлення
Anonymous 







2017-10-24 12:21  
Затьмарення / Затемнення / Regression (2015)

Затьмарення / Затемнення / Regression (2015)


Жанр: містика, трилер, жахи
Країна: Іспанія, Канада



Кінокомпанія: Mod Producciones, First Generation Films, FilmNation Entertainment
Режисер: Алехандро Аменабар / Alejandro Amenábar
Актори: Ітан Гоук / Ethan Hawke, Ема Вотсон / Emma Watson, Девід Тьюліс / David Thewlis, Лотер Блюто / Lothaire Bluteau, Дейл Діккі / Dale Dickey, Девід Денсік / David Dencik, Девон Бостік / Devon Bostick, Аарон Ешмор / Aaron Ashmore, Пітер МакНейл / Peter MacNeill, Адам Бутчер / Adam Butcher, Аарон Абрамс / Aaron Abrams, Джейкоб Нієм / Jacob Neayem, Джанет Портер / Janet Porter та інші

Сюжет:
У стрічці йдеться про чоловіка, якого несподівано звинувачують у сексуальному насильстві щодо власної доньки. При цьому головний герой нічого не пам'ятає і не розуміє, що насправді відбувається. Він вирішує звернутися до психіатра, маючи надію, що той зможе допомогти йому відновити спогади. Однак із часом герой розуміє, що насправді став заручником чиєїсь змови.
Кінотеатральний опис сюжета:
Головний герой картини – детектив Брюс Кеннер. Він має розслідувати незвичайну справу. У розбещенні 17-річної дочки Анджели звинувачують Джона Грея. Чоловік не заперечує провини і згоден із обвинуваченням, однак на допитах не може нічого пригадати. Точнісінько так само і його дочка Анджела не готова свідчити. Для роботи з потерпілою та підсудним запрошують психолога, який з'ясовує, що причина такої амнезії – чорні меси, які з дозволу батька служили в присутності сплячої Анджели.

Офіційний український трейлер:

Рейтинг MPAA: R - особам до 17 років обов'язкова присутність батьків або дорослого опікуна
Вікова категорія: 16+
Тривалість: 01:46:04
Якість: [Hurtom, джерело - Blu-ray]
Відео:
кодек:
розмір кадру: 720х304
бітрейт: 1788 кб/с

Аудіо # 1:
мова: українська
переклад: багатоголосий закадровий
кодек: 2.0 [stereo]
бітрейт: 192 кб/с
Info
Код:
General
Complete name               : Regression (2015) [Ukr] [Hurtom].avi
Format                      : AVI
Format/Info                 : Audio Video Interleave
File size                   : 1.47 GiB
Duration                    : 1 h 46 min
Overall bit rate            : 1 989 kb/s
Movie name                  : Затьмарення / Затемнення / Regression (2015) [Ukr] [Hurtom]
Genre                       : містика, трилер, жахи
Writing application         : VirtualDubModUkr 1.5.10.2 (build 2542/release)
Writing library             : VirtualDubMod build 2542/release
Comment                     : https://toloka.to/t84829

Video
ID                          : 0
Format                      : MPEG-4 Visual
Format profile              : Advanced [email protected]
Format settings             : BVOP1
Format settings, BVOP       : 1
Format settings, QPel       : No
Format settings, GMC        : No warppoints
Format settings, Matrix     : Default (MPEG)
Codec ID                    :
Codec ID/Hint               :
Duration                    : 1 h 46 min
Bit rate                    : 1 788 kb/s
Width                       : 720 pixels
Height                      : 304 pixels
Display aspect ratio        : 2.35:1
Frame rate                  : 23.976 (24000/1001) FPS
Color space                 : YUV
Chroma subsampling          : 4:2:0
Bit depth                   : 8 bits
Scan type                   : Progressive
Compression mode            : Lossy
Bits/(Pixel*Frame)          : 0.341
Stream size                 : 1.32 GiB (90%)
Writing library             : 67

Audio
ID                          : 1
Format                      : AC-3
Format/Info                 : Audio Coding 3
Format settings, Endianness : Big
Codec ID                    : 2000
Duration                    : 1 h 46 min
Bit rate mode               : Constant
Bit rate                    : 192 kb/s
Channel(s)                  : 2 channels
Channel positions           : Front: L R
Sampling rate               : 48.0 kHz
Frame rate                  : 31.250 FPS (1536 SPF)
Bit depth                   : 16 bits
Compression mode            : Lossy
Stream size                 : 146 MiB (10%)
Alignment                   : Split accross interleaves
Interleave, duration        : 42  ms (1.00 video frame)
Interleave, preload duratio : 500  ms
Title                       : Ukr MVO [Volya Cine+] stereo
Service kind                : Complete Main


Джерело:
Подяка за українську доріжку п.Sando7


 Трекер:    Зареєстрований   

Завантажити / скачати фільм українською



відео для новачків



 Зареєстрований:   2017-10-24 12:25
 Розмір:   1.47 GB 
 Оцінка фільму:   5.6/10 (Голосів: 23)
   
747 
Поважний учасник


З нами з: 21.05.10
Востаннє: 14.12.17
Повідомлень: 163

2017-10-25 21:56  
Дурня якась, хоч і зіграли дуже відомі актори.
Я ще розумію, що можливо людину переконати що вана буцімто щось інше зїла чи зробила, але вбивсьто та поїдання, гвалтування, оргії - це перебір. Тому сюжет це повна маячня. Особливо випадок із копом, де алібі, де докази, а нафіг вони, винен та й усе, а також вбивсьвами, типу вбили, мясо зїли, кості закопали, і ні тобі жодного зникнення, ні розшуків і тд.і тп. 4/10. Також не сподобаль участь Емми, оскільки роль їй на мій погляд не підходяща, тут має бути більш "жорстокіша", чи "хитріша" героїня.
НЕ РЕКОМЕДУЮ.

maximik 
Новенький


З нами з: 04.07.10
Востаннє: 30.11.17
Повідомлень: 1

2017-10-26 22:18  
дуже якісний фільм
Ванько 
Поважний учасник


З нами з: 27.08.09
Востаннє: 14.12.17
Повідомлень: 174

2017-10-27 07:43  
Опис шикарний і не відповідає сюжету :-) Можна подумати/намалювати в уяві ого-го що - насправді все трошки не так.
Фільм дійсно хороший, але є два мінуси - кінцівка і те,
що Ітан Хоук на жаль не стрибнув у гречку з Герміоною :-)

Electroz 
Відео Гуртом - підтримка та поширення
Відео Гуртом - підтримка та поширення


З нами з: 18.09.14
Востаннє: 14.12.17
Повідомлень: 2008

2017-10-27 13:29  
Кінотеатральний опис сюжета:

Головний герой картини – детектив Брюс Кеннер. Він має розслідувати незвичайну справу. У розбещенні 17-річної дочки Анджели звинувачують Джона Грея. Чоловік не заперечує провини і згоден із обвинуваченням, однак на допитах не може нічого пригадати. Точнісінько так само і його дочка Анджела не готова свідчити. Для роботи з потерпілою та підсудним запрошують психолога, який з'ясовує, що причина такої амнезії – чорні меси, які з дозволу батька служили в присутності сплячої Анджели.

alex2 
Частий відвідувач


З нами з: 01.02.12
Востаннє: 13.12.17
Повідомлень: 38

2017-10-27 14:11  
непогано
Ваш часовий пояс: GMT + 2 Години

Нова тема   Відповісти