Гвардія 2 (Сезон 2) (2017) 720p

Нові коментарі

Нова тема   Відповісти
Автор Повідомлення
sergiyko.5 
Забанено
Забанено


З нами з: 25.02.16
Востаннє: 29.10.20
Повідомлень: 3650

2017-10-24 08:56  
Гвардія 2 (Сезон 2) (2017) 720p

Гвардія 2 (Сезон 2) (2017) 720p

Жанр: драма, воєнний
Країна: Україна
Кінокомпанія: 2+2
Режисер: Олексій Шапарев
Актори: Олексій Горбунов; Анна Топчій; Дмитро Ступка; Ахтем Сеїтаблаєв; Денис Гранчак; Константин Шафоренко; Вано Янтбелідзе; Вікторія Токманенко та інші.

Сюжет:
Гвардія 2 - це двосерійний телефільм про групу розвідників, які захищають українські землі від російської агресії в найзапекліший період протистояння на Сході України.
Всі події фільму розгортаються навколо розвідгрупи на чолі з колишнім афганцем з позивним "Дід". Вчорашні новобранці стають професійними розвідниками і йдуть на нове завдання. У минулому - бізнесмен, чемпіонка зі стрільби, вчений-хімік, запорізький слюсар і доброволець з Криму стають досвідченими бійцями, які знають, що таке війна і біль від втрати близьких друзів. З'являється інформація про можливість повномасштабного вторгнення російських військ і підготовку кривавого теракту в прифронтовому місті, з боку окупантів. Команда "Діда" вступає в битву, щоб запобігти страшній трагедії серед мирного населення і виявити "крота" - організатора теракту.


Тривалість: 1 серія: 45:00 (цілком серій: 2)
Якість:

Відео: кодек: розмір кадру: 1280х720 бітрейт: 800 кб/с
Аудіо: мова: українська, російська переклад: оригінал кодек: 2.0 бітрейт: 128 кб/с
Перелік серій
1 серія
2 серія
Про файл:

General
Complete name : E:\FILMS\Гвардія 2 720p\Гвардія.2.S02E01..720p.mp4
Format : MPEG-4
Format profile : Base Media / Version 2
Codec ID : mp42 (isom/mp42)
File size : 302 MiB
Duration : 45 min 19 s
Overall bit rate mode : Variable
Overall bit rate : 933 kb/s
Encoded date : UTC 2017-10-15 07:58:37
Tagged date : UTC 2017-10-15 07:58:37
gsst : 0
gstd : 2719149

Video
ID : 1
Format : AVC
Format/Info : Advanced Video Codec
Format profile : [email protected]
Format settings, CABAC : Yes
Format settings, RefFrames : 3 frames
Codec ID : avc1
Codec ID/Info : Advanced Video Coding
Duration : 45 min 19 s
Bit rate : 804 kb/s
Width : 1 280 pixels
Height : 720 pixels
Display aspect ratio : 16:9
Frame rate mode : Constant
Frame rate : 25.000 FPS
Color space : YUV
Chroma subsampling : 4:2:0
Bit depth : 8 bits
Scan type : Progressive
Bits/(Pixel*Frame) : 0.035
Stream size : 260 MiB (86%)
Title : ISO Media file produced by Google Inc. Created on: 10/15/2017.
Encoded date : UTC 2017-10-15 07:58:37
Tagged date : UTC 2017-10-15 07:58:37
Color range : Limited
Color primaries : BT.709
Transfer characteristics : BT.709
Matrix coefficients : BT.709

Audio
ID : 2
Format :
Format/Info : Advanced Audio Codec
Format profile : LC
Codec ID : 40
Duration : 45 min 19 s
Bit rate mode : Variable
Bit rate : 126 kb/s
Channel(s) : 2 channels
Channel positions : Front: L R
Sampling rate : 44.1 kHz
Frame rate : 43.066 FPS (1024 SPF)
Compression mode : Lossy
Stream size : 40.7 MiB (13%)
Title : ISO Media file produced by Google Inc. Created on: 10/15/2017.
Encoded date : UTC 2017-10-15 07:58:37
Tagged date : UTC 2017-10-15 07:58:37
Скріншоти:


Золотий реліз (завантажене не впливає на рейтинг)
 Трекер:    Зареєстрований   

Завантажити / скачати український серіал



відео для новачків



 Зареєстрований:   2017-10-24 08:56
 Розмір:   615 MB 
 Оцінка серіалу:   8.7/10 (Голосів: 37)
   
sbsb 
Новенький


З нами з: 29.05.17
Востаннє: 30.01.20
Повідомлень: 2

2017-10-24 10:14  
Хлопці виставили врешті знятий ще для Гвардіїї-1 матеріал чи це нове?
EvGaS 
Відео Гуртом - субтитрування
Відео Гуртом - субтитрування


З нами з: 27.02.12
Востаннє: 31.07.19
Повідомлень: 5668

2017-10-24 11:00  
sergiyko.5 написано:

Bits/(Pixel*Frame) : 0.035
Stream size : 260 MiB (86%)
Title : ISO Media file produced by Google Inc. Created on: 10/15/2017.

Краще за ютуб якості не знайшлося? Sad (1)

Fouley 
Поважний учасник


З нами з: 01.06.11
Востаннє: 24.11.20
Повідомлень: 151

2017-10-24 11:43  
Це дві нові серії. Бачив по 2+2. Правда кінець дуже драматичний.
Мілько 
Новенький


З нами з: 27.12.09
Востаннє: 22.11.20
Повідомлень: 20

2017-10-24 13:56  
Класне "українське" кіно. Може в наступних опитуваннях щодо озвучки серіалів і оцей варто додати?
piznajko 
Відео Гуртом - субтитрування
Відео Гуртом - субтитрування


З нами з: 24.02.09
Востаннє: 17.11.20
Повідомлень: 2197

2017-10-24 23:07  
Мілько написано:
Класне "українське" кіно. Може в наступних опитуваннях щодо озвучки серіалів і оцей варто додати?

Було б смішно, якби не було так сумно... Скіки в серіалі реплік українською, хоч 50% набереться?

Electroz 
Відео Гуртом - підтримка та поширення
Відео Гуртом - підтримка та поширення


З нами з: 18.09.14
Востаннє: 25.11.20
Повідомлень: 4211

2017-10-24 23:13  
del
jaral 
Забанено
Забанено


З нами з: 18.10.07
Востаннє: 21.01.20
Повідомлень: 977

2017-10-24 23:35  
piznajko написано:
хоч 50% набереться?
+1
Givi 
Модератор відео


З нами з: 25.02.08
Востаннє: 24.11.20
Повідомлень: 2953

2017-10-29 13:14  
Кіно суперове! Не відпускало з самого початку.
iwan wan 
VIP


З нами з: 01.10.09
Востаннє: 24.11.20
Повідомлень: 2022

2017-10-29 21:57  
Так,то що там з фільмом ? Хороший чи ні? Справжній український патріотичний бойовик, чи кіно для знущання з українців? а то відгуки неодноначні...
Givi 
Модератор відео


З нами з: 25.02.08
Востаннє: 24.11.20
Повідомлень: 2953

2017-10-31 20:54  
iwan wan
Фільм гарний. Значно кращий від першої частини, єдине чого не вистачає - гарних спецефектів Sad (1)

Zaporoghets 
Частий відвідувач


З нами з: 08.05.13
Востаннє: 20.11.20
Повідомлень: 49

2017-11-04 23:34  
Серіал - лайно. Лажа у всьому, починаючи від сюжету, продовжуючи одягом лівим, закінчуючи галімою режсурою. А ще і ушльопок Ступка грає одну із головних ролей. Це та мразота, для якої гроші не пахнуть, який на Москву постійно працював. Чого варта його роль лише в фільмі Ми із будущего 2.
Отже, категорично НЕ рекомендую. Дарма втрачений час.

=HomeAlone= 
Частий відвідувач


З нами з: 04.01.11
Востаннє: 13.03.20
Повідомлень: 35

2017-11-05 09:13  
Цитата:
А ще і ушльопок Ступка грає одну із головних ролей. Це та мразота, для якої гроші не пахнуть, який на Москву постійно працював. Чого варта його роль лише в фільмі Ми із будущего 2.

Не знаю, чи це правда, але... Якийсь вибірковій в Україні патріотизм


iwan wan 
VIP


З нами з: 01.10.09
Востаннє: 24.11.20
Повідомлень: 2022

2017-11-05 21:37  
=HomeAlone= написано:
Не знаю, чи це правда, але... Якийсь вибірковій в Україні патріотизм

Правда

Zaporoghets написано:

Серіал - лайно. Лажа у всьому, починаючи від сюжету, продовжуючи одягом лівим, закінчуючи галімою режсурою. А ще і ушльопок Ступка грає одну із головних ролей. Це та мразота, для якої гроші не пахнуть, який на Москву постійно працював. Чого варта його роль лише в фільмі Ми із будущего 2.
Отже, категорично НЕ рекомендую. Дарма втрачений час.

а який на вашу думкку був би ідеальний серіал такого типу, і хто на вашу думку би підійшов з акторів туди?

Zaporoghets 
Частий відвідувач


З нами з: 08.05.13
Востаннє: 20.11.20
Повідомлень: 49

2017-11-12 18:14  
Сподіваюсь що фільм Кіборги за режисурою Сеітеблаєва буде гарним. Ну і сподіваюсь що вони відзняли матеріалу на мінісеріал телевізійний, як і планували.
DarkSet_ 
Частий відвідувач


З нами з: 09.06.13
Востаннє: 11.11.20
Повідомлень: 43

2017-11-17 19:40  
Цитата:
Чого варта його роль лише в фільмі Ми із будущего 2.

а які, власне, претензії до цього ми із будущего? Сучасні українці там показані нормально - ніхто насправді всерйоз москалів не чіпав, крім одного хлопа. І що, в нас немає реальних нацистів? Звісно є.
А історичне УПА там показано цілком нормально. З одного боку вони воюють проти комуністів, з іншого - проти німецьких нацистів. І форму СС Галичина за свою не сприймають. Сцена з розстрілом селян за те що вони комуністи - теж цілком відповідає історичній реальності. Так, вони карали комуністів, навіть якщо це були поранені, старі і жінки. Так само як НКВСники страчували цілі родини. Така була війна.

фінал свісно підкачав, з мишебратством і москальською мовою. Але не так вже це критично, як для москальского кіна.

Electroz 
Відео Гуртом - підтримка та поширення
Відео Гуртом - підтримка та поширення


З нами з: 18.09.14
Востаннє: 25.11.20
Повідомлень: 4211

2017-11-17 20:57  
del
DarkSet_ 
Частий відвідувач


З нами з: 09.06.13
Востаннє: 11.11.20
Повідомлень: 43

2017-11-19 00:46  
подивився - продовження нічим не краще початку. Все погано: сценарій поганий, постановка погана, гра акторів погана і на диво навіть робота оператора така собі, хоча начебто в технічному плані у нас робити якісно вже навчилися.
Найгірше, звісно, що в моїй країні доводиться знімати фільми подібної тематики.

vilasipet 
Частий відвідувач


З нами з: 19.06.14
Востаннє: 23.11.20
Повідомлень: 49

2018-03-01 21:59  
7ка, відчутний бюджет, але все норм, треба більше такої теми в ефірі
vvmalysh 
Частий відвідувач


З нами з: 06.11.13
Востаннє: 21.11.20
Повідомлень: 28

2018-03-10 10:05  
piznajko
Шановний, а в житті як? Всі на передовій на українській розмовляють? В серіалі показано як є, і попри все, я вважаю що так правильно...

Sando7 
Відео Гуртом - запис з ТБ
Відео Гуртом - запис з ТБ


З нами з: 04.05.09
Востаннє: 24.11.20
Повідомлень: 1568

2018-03-12 19:10  
vvmalysh написано:
на українській розмовляють?

Не на , а українською. Невже так погано мову знають люди, дещо неприємно що у нас так багато невігласів

Ваш часовий пояс: GMT + 2 Години

Нова тема   Відповісти