Пастка / Get Out (2017) 1080p Ukr/Eng | Sub Eng

Нові коментарі

Нова тема   Відповісти
Автор Повідомлення
Bod_zik99 
VIP


З нами з: 28.12.13
Востаннє: 16.01.18
Повідомлень: 1350

2017-10-23 18:50  
Пастка / Get Out (2017) 1080p Ukr/Eng | Sub Eng

Пастка / Get Out (2017) 1080p Ukr/Eng | Sub Eng


Жанр: детектив, трилер, жахи
Країна: США



Кінокомпанія: Universal Pictures, Blumhouse Productions
Режисер: Джордан Піл
Актори: Деніел Калуя, Еллісон Вільямс, Кетрін Кінер, Бредлі Вітфорд, Калеб Лендрі Джонс, Маркус Хендерсон, Бетті Гебріел, Кіт Стенфілд, Стівен Рут, Ліл Рел Хаурі

Сюжет:
Кріс - простий темношкірий хлопець, який вже деякий час зустрічається з симпатичною і веселою дівчиною Роуз. Хлопець отримує запрошення від батьків своєї дівчини погостювати в сімейному маєтку. Кріс відчуває себе досить комфортно в сім'ї Роуз, єдине що його бентежить - дуже дивна поведінка темношкірих, які живуть в цьому невеликому містечку. Всі вони постійно мовчать і роблять незрозумілі речі. Згодом хлопець з’ясовує, що вечірка в заміському маєтку перетворюється на моторошне дійство. Гості поводяться дивно, а господарі практикують гіпноз. Їм потрібна нова жертва – він.


Тривалість: 01:44:05
Якість: 1080p
Відео:
кодек:
розмір кадру: 1920x800
бітрейт: 14,2 Мб/с

Аудіо # 1:
мова: українська
переклад: професійний дубльований
кодек: 2.0
бітрейт: 191 кб/с

Аудіо # 2:
мова: англійська
переклад: оригінал
кодек: 5.1
бітрейт: 1510 кб/с

Субтитри #1:
мова: українська (Форсовані)
тип: програмні (м'які)
формат: *.srt

Субтитри #(2-3-4):
мова: англійська (Full, SHD, SHD-Colored)
тип: програмні (м'які)
формат: *.srt

Збережено оригінальні розділи як на Blu-Ray
Info
Код:
General
Unique ID                   : 248201806931534154350342483338507969048 (0xBAB9EDE17EFABB69A326887BFA39E218)
Complete name               : D:\Get Out (2017) 1080p [Ukr,Eng_Sub Ukr,Eng].
Format                      :
Format version              : Version 4 / Version 2
File size                   : 11.5 GiB
Duration                    : 1 h 44 min
Overall bit rate            : 15.9 Mb/s
Movie name                  : Get Out (2017) 1080p
Encoded date                : UTC 2017-10-23 16:28:19
Writing application         : mkvmerge v16.0.0 ('Protest') 64-bit
Writing library             : libebml v1.3.5 + libmatroska v1.4.8
Cover                       : Yes
Attachments                 : cover.jpg

Video
ID                          : 1
Format                      : AVC
Format/Info                 : Advanced Video Codec
Format profile              : [email protected]
Format settings, CABAC      : Yes
Format settings, RefFrames  : 5 frames
Codec ID                    : V_MPEG4/ISO/AVC
Duration                    : 1 h 44 min
Bit rate                    : 14.2 Mb/s
Width                       : 1 920 pixels
Height                      : 804 pixels
Display aspect ratio        : 2.40:1
Frame rate mode             : Constant
Frame rate                  : 23.976 (24000/1001) FPS
Color space                 : YUV
Chroma subsampling          : 4:2:0
Bit depth                   : 8 bits
Scan type                   : Progressive
Bits/(Pixel*Frame)          : 0.383
Stream size                 : 10.3 GiB (89%)
Writing library             : core 148 r2762+56 6284cf3 t_mod_Custom [[email protected] X86_64]
Encoding settings           : cabac=1 / ref=5 / deblock=1:-3:-3 / analyse=0x3:0x133 / me=umh / subme=11 / psy=1 / fade_compensate=0.00 / psy_rd=1.00:0.00 / mixed_ref=1 / me_range=32 / chroma_me=1 / trellis=2 / 8x8dct=1 / cqm=0 / deadzone=21,11 / fast_pskip=0 / chroma_qp_offset=-2 / threads=12 / lookahead_threads=2 / sliced_threads=0 / nr=0 / decimate=0 / interlaced=0 / bluray_compat=0 / constrained_intra=0 / fgo=0 / bframes=9 / b_pyramid=2 / b_adapt=2 / b_bias=0 / direct=3 / weightb=1 / open_gop=0 / weightp=2 / keyint=250 / keyint_min=23 / scenecut=40 / intra_refresh=0 / rc_lookahead=60 / rc=crf / mbtree=0 / crf=16.0000 / qcomp=0.65 / qpmin=0:0:0 / qpmax=69:69:69 / qpstep=4 / vbv_maxrate=62500 / vbv_bufsize=78125 / crf_max=0.0 / nal_hrd=none / filler=0 / ip_ratio=1.30 / pb_ratio=1.20 / aq=3:0.80 / aq-sensitivity=10.00 / aq-factor=1.00:1.00:1.00 / aq2=0 / aq3=0 / zones=31448,37790,crf=15.5/40502,43697,crf=15.5/50833,50903,crf=14.5/90629,91144,crf=15.5/95561,95643,crf=15.5/98286,98403,crf=15.5/98578,98624,crf=15.5/98709,98804,crf=15.5/99284,99343,crf=15.5/121281,121323,crf=15.5/125041,125312,crf=13/127912,127967,crf=15/128752,128979,crf=15.5/130976,131190,crf=15.5/131474,131520,crf=12/131521,132862,crf=15.5/134942,141497,crf=15.5/141498,142100,crf=14/142101,144392,crf=15.5/144500,149733,crf=19
Language                    : English
Default                     : Yes
Forced                      : No
Color range                 : Limited
Matrix coefficients         : BT.709

Audio #1
ID                          : 2
Format                      : AC-3
Format/Info                 : Audio Coding 3
Format settings, Endianness : Big
Codec ID                    : A_AC3
Duration                    : 1 h 44 min
Bit rate mode               : Constant
Bit rate                    : 192 kb/s
Channel(s)                  : 2 channels
Channel positions           : Front: L R
Sampling rate               : 48.0 kHz
Frame rate                  : 31.250 FPS (1536 SPF)
Bit depth                   : 16 bits
Compression mode            : Lossy
Stream size                 : 143 MiB (1%)
Title                       : 2.0 @ 192 kbps - DUB, iTunes
Language                    : Ukrainian
Service kind                : Complete Main
Default                     : Yes
Forced                      : Yes

Audio #2
ID                          : 3
Format                      :
Format/Info                 : Digital Theater Systems
Mode                        : 16
Format settings, Endianness : Big
Codec ID                    : A_DTS
Duration                    : 1 h 44 min
Bit rate mode               : Constant
Bit rate                    : 1 509 kb/s
Channel(s)                  : 6 channels
Channel positions           : Front: L C R, Side: L R, LFE
Sampling rate               : 48.0 kHz
Frame rate                  : 93.750 FPS (512 SPF)
Bit depth                   : 24 bits
Compression mode            : Lossy
Stream size                 : 1.10 GiB (10%)
Language                    : English
Default                     : No
Forced                      : No

Text #1
ID                          : 4
Format                      : UTF-8
Codec ID                    : S_TEXT/UTF8
Codec ID/Info               : UTF-8 Plain Text
Duration                    : 1 h 34 min
Bit rate                    : 0 b/s
Count of elements           : 10
Stream size                 : 390 Bytes (0%)
Title                       : Forced
Language                    : Ukrainian
Default                     : Yes
Forced                      : Yes

Text #2
ID                          : 5
Format                      : UTF-8
Codec ID                    : S_TEXT/UTF8
Codec ID/Info               : UTF-8 Plain Text
Duration                    : 1 h 38 min
Bit rate                    : 49 b/s
Count of elements           : 1232
Stream size                 : 35.6 KiB (0%)
Title                       : Full
Language                    : English
Default                     : No
Forced                      : No

Text #3
ID                          : 6
Format                      : UTF-8
Codec ID                    : S_TEXT/UTF8
Codec ID/Info               : UTF-8 Plain Text
Duration                    : 1 h 38 min
Bit rate                    : 53 b/s
Count of elements           : 1413
Stream size                 : 38.7 KiB (0%)
Title                       : SHD
Language                    : English
Default                     : No
Forced                      : No

Text #4
ID                          : 7
Format                      : UTF-8
Codec ID                    : S_TEXT/UTF8
Codec ID/Info               : UTF-8 Plain Text
Duration                    : 1 h 39 min
Bit rate                    : 66 b/s
Count of elements           : 1388
Stream size                 : 48.4 KiB (0%)
Title                       : SHD-Colored
Language                    : English
Default                     : No
Forced                      : No

Menu
00:00:00.000                : en:Chapter 1
00:04:52.834                : en:Chapter 2
00:10:13.528                : en:Chapter 3
00:14:02.258                : en:Chapter 4
00:19:07.479                : en:Chapter 5
00:21:49.432                : en:Chapter 6
00:26:07.356                : en:Chapter 7
00:30:51.015                : en:Chapter 8
00:37:19.487                : en:Chapter 9
00:42:16.867                : en:Chapter 10
00:48:03.170                : en:Chapter 11
00:54:13.583                : en:Chapter 12
00:57:38.288                : en:Chapter 13
01:03:33.809                : en:Chapter 14
01:10:48.911                : en:Chapter 15
01:15:36.363                : en:Chapter 16
01:22:02.542                : en:Chapter 17
01:26:13.417                : en:Chapter 18
01:32:24.412                : en:Chapter 19
01:40:22.390                : en:Chapter 20

Скріншоти





Подяка панам Sehrg-Gut та leicheman за придбану доріжку,а також пану Electroz за синхронізацію

Джерело:
Особиста оцінка: 10 - без зайвих вагань рекомендую всім!


Золотий реліз (завантажене не впливає на рейтинг)
 Трекер:    Зареєстрований   

Завантажити / скачати фільм українською



відео для новачків



 Зареєстрований:   2018-01-06 15:15
 Розмір:   11.53 GB 
 Оцінка фільму:   8.6/10 (Голосів: 29)
   
Інші релізи
   Пастка / Get Out (2017) Remux 1080p Ukr/Eng | Sub Eng IronBee  8 / 0   24.09 GB   2017-10-28 19:19 
   Пастка / Get Out (2017) 720p Ukr/Eng | Sub Eng Patriot_ukr  33 / 0   3.76 GB   2017-10-25 12:40 
   Пастка / Get Out (2017) legos25  19 / 0   1.37 GB   2017-10-23 23:32 
   Пастка / Get Out (2017) AVC Ukr/Eng | Sub Eng Electroz  52 / 4   1.41 GB   2017-10-23 22:34 
mrsdoubtfire 
Поважний учасник


З нами з: 22.10.15
Востаннє: 11.01.18
Повідомлень: 164

2017-10-23 19:05  
Цей фільм мені нагадує Щелепи Стівена Спілберґа. Напевно через саундтрек,
Спойлер
бо акул тут нема.

Bod_zik99 
VIP


З нами з: 28.12.13
Востаннє: 16.01.18
Повідомлень: 1350

2017-10-23 19:33  
igor911
Замінив.

famous37 
Відео Гуртом - фільмокрай
Відео Гуртом - фільмокрай


З нами з: 16.11.08
Востаннє: 16.01.18
Повідомлень: 800

2017-10-24 03:52  
Фільм сподобався)
uaxpasha 
Поважний учасник


З нами з: 05.08.12
Востаннє: 15.01.18
Повідомлень: 182

2017-10-25 11:44  
Bod_zik99 написано:
Джордан Піл

Геніально, ніяк не очікував такого від нього. Від чистої комендії до цього..
8/10

Siegfried 
Свій


З нами з: 01.11.11
Востаннє: 15.01.18
Повідомлень: 141

2017-11-22 10:53  
Толерастична антибіла агітка.
В дусі нинішньої мізкомийної світової політики америкосії.
Нічого цікавого.

GoDLiKeR20 
Частий відвідувач


З нами з: 21.06.13
Востаннє: 13.01.18
Повідомлень: 44

2018-01-06 12:06  
В кінці фільму(там де дівчина з дробовиком біля дверей) на українську звукову доріжку якась музика Маріо наложена. Як такі релізи допускаються на Толоці? Бред просто. Додивився в оригіналі з субтитрами.
Фільм 10/10, дуже ржачно і круто.

Bod_zik99 
VIP


З нами з: 28.12.13
Востаннє: 16.01.18
Повідомлень: 1350

2018-01-06 15:18  
Торент-файл оновлено
Виправлено "ретровейв" в проміжку з 1:33:06 - 1:35:18 в українській доріжці

Ваш часовий пояс: GMT + 2 Години

Нова тема   Відповісти