Затьмарення / Затемнення / Regression (2015) 720p Ukr/Eng | Sub Eng

Нові коментарі

Нова тема   Відповісти
Автор Повідомлення
Anonymous 







2017-10-23 18:05  
Затьмарення / Затемнення / Regression (2015) 720p Ukr/Eng | Sub Eng

Затьмарення / Затемнення / Regression (2015) 720p Ukr/Eng | Sub Eng


Жанр: містика, трилер, жахи
Країна: Іспанія, Канада



Кінокомпанія: Mod Producciones, First Generation Films, FilmNation Entertainment
Режисер: Алехандро Аменабар / Alejandro Amenábar
Актори: Ітан Гоук / Ethan Hawke, Емма Вотсон / Emma Watson, Девід Тьюліс / David Thewlis, Лотер Блюто / Lothaire Bluteau, Дейл Діккі / Dale Dickey, Девід Денсік / David Dencik, Девон Бостік / Devon Bostick, Аарон Ешмор / Aaron Ashmore, Пітер МакНейл / Peter MacNeill, Адам Бутчер / Adam Butcher, Аарон Абрамс / Aaron Abrams, Джейкоб Нієм / Jacob Neayem, Джанет Портер / Janet Porter та інші

Сюжет:
Головний герой картини – детектив Брюс Кеннер (Ітан Гоук). Він має розслідувати незвичайну справу. У розбещенні 17-річної дочки Анджели (Емма Вотсон) звинувачують Джона Грея (Девід Денсік). Чоловік не заперечує провини і згоден із обвинуваченням, однак на допитах не може нічого пригадати. Точнісінько так само і його дочка Анджела не готова свідчити. Для роботи з потерпілою та підсудним запрошують психолога, який з'ясовує, що причина такої амнезії – чорні меси, які з дозволу батька служили в присутності сплячої Анджели.
Офіційний український трейлер:
Рейтинг MPAA: R - особам до 17 років обов'язкова присутність батьків або дорослого опікуна
Вікова категорія: 16+
Тривалість: 01:46:04
Якість: 720p
Відео:
кодек:
розмір кадру: 1280х536
бітрейт: 4678 кб/с [crf=16.5]

Аудіо # 1:
мова: українська
переклад: багатоголосий закадровий
кодек: 2.0 [stereo]
бітрейт: 192 кб/с

Аудіо # 2:
мова: англійська
переклад: оригінал
кодек: 5.1
бітрейт: 640 кб/с

Субтитри:
мова: англійська
тип: програмні (м'які)
формат: *.srt

Збережено оригінальні розділи, як на Blu-ray
Info
Код:
Complete name               : Regression (2015) [Ukr,Eng sub.Eng] 720p [Hurtom].
Format                      :
Format version              : Version 4 / Version 2
File size                   : 4.08 GiB
Duration                    : 1 h 46 min
Overall bit rate            : 5 512 kb/s
Movie name                  : Затьмарення / Затемнення / Regression (2015) [Ukr,Eng sub.Eng] 720p [Hurtom]
Released date               : 2015
Writing application         : v17.0.0 ('Be Ur Friend') 64-bit
Writing library             : libebml v1.3.5 + v1.4.8
Cover                       : Yes
Comment                     : http://www.imdb.com/title/tt3319920/
Attachments                 : cover.jpg
ARTIST                      : Ітан Гоук / Ethan Hawke, Ема Вотсон / Emma Watson, Девід Тьюліс / David Thewlis, Лотер Блюто / Lothaire Bluteau, Дейл Діккі / Dale Dickey, Девід Денсік / David Dencik, Девон Бостік / Devon Bostick, Аарон Ешмор / Aaron Ashmore, Пітер МакНейл / Peter MacNeill, Адам Бутчер / Adam Butcher, Аарон Абрамс / Aaron Abrams, Джейкоб Нієм / Jacob Neayem, Джанет Портер / Janet Porter та інші
DIRECTOR                    : Алехандро Аменабар / Alejandro Amenabar
GENRE                       : містика, трилер, жахи
SYNOPSIS                    : У стрічці йдеться про чоловіка, якого несподівано звинувачують у сексуальному насильстві щодо власної доньки. При цьому головний герой нічого не пам'ятає і не розуміє, що насправді відбувається. Він вирішує звернутися до психіатра, маючи надію, що той зможе допомогти йому відновити спогади. Однак із часом герой розуміє, що насправді став заручником чиєїсь змови...
Url                         : https://toloka.to/t84814

Video
ID                          : 1
Format                      : AVC
Format/Info                 : Advanced Video Codec
Format profile              : [email protected]
Format settings             : CABAC / 12 Ref Frames
Format settings, CABAC      : Yes
Format settings, RefFrames  : 12 frames
Codec ID                    : V_MPEG4/ISO/AVC
Duration                    : 1 h 46 min
Bit rate                    : 4 678 kb/s
Width                       : 1 280 pixels
Height                      : 536 pixels
Display aspect ratio        : 2.40:1
Frame rate mode             : Constant
Frame rate                  : 23.976 (24000/1001) FPS
Color space                 : YUV
Chroma subsampling          : 4:2:0
Bit depth                   : 8 bits
Scan type                   : Progressive
Bits/(Pixel*Frame)          : 0.284
Stream size                 : 3.47 GiB (85%)
Title                       : Затьмарення / Затемнення / Regression (2015) 720p Ukr/Eng [Tonik]
Writing library             : core 148 r2597 e86f3a1
Encoding settings           : cabac=1 / ref=12 / deblock=1:-3:-3 / analyse=0x3:0x113 / me=umh / subme=11 / psy=1 / psy_rd=1.00:0.00 / mixed_ref=1 / me_range=32 / chroma_me=1 / trellis=2 / 8x8dct=1 / cqm=0 / deadzone=21,11 / fast_pskip=0 / chroma_qp_offset=-2 / threads=12 / lookahead_threads=2 / sliced_threads=0 / nr=0 / decimate=0 / interlaced=0 / bluray_compat=0 / constrained_intra=0 / bframes=9 / b_pyramid=2 / b_adapt=2 / b_bias=0 / direct=3 / weightb=1 / open_gop=0 / weightp=2 / keyint=240 / keyint_min=24 / scenecut=40 / intra_refresh=0 / rc_lookahead=40 / rc=crf / mbtree=0 / crf=16.5 / qcomp=0.70 / qpmin=0 / qpmax=69 / qpstep=4 / vbv_maxrate=40000 / vbv_bufsize=30000 / crf_max=0.0 / nal_hrd=none / filler=0 / ip_ratio=1.20 / pb_ratio=1.20 / aq=3:0.95
Language                    : English
Default                     : Yes
Forced                      : No

Audio #1
ID                          : 2
Format                      : AC-3
Format/Info                 : Audio Coding 3
Format settings, Endianness : Big
Codec ID                    : A_AC3
Duration                    : 1 h 46 min
Bit rate mode               : Constant
Bit rate                    : 192 kb/s
Channel(s)                  : 2 channels
Channel positions           : Front: L R
Sampling rate               : 48.0 kHz
Frame rate                  : 31.250 FPS (1536 SPF)
Bit depth                   : 16 bits
Compression mode            : Lossy
Stream size                 : 146 MiB (3%)
Title                       : MVO [Volya Cine+] 2.0 [stereo] 192 Kbps [Hurtom-Sando7]
Language                    : Ukrainian
Service kind                : Complete Main
Default                     : Yes
Forced                      : Yes

Audio #2
ID                          : 3
Format                      : AC-3
Format/Info                 : Audio Coding 3
Format settings, Endianness : Big
Codec ID                    : A_AC3
Duration                    : 1 h 46 min
Bit rate mode               : Constant
Bit rate                    : 640 kb/s
Channel(s)                  : 6 channels
Channel positions           : Front: L C R, Side: L R, LFE
Sampling rate               : 48.0 kHz
Frame rate                  : 31.250 FPS (1536 SPF)
Bit depth                   : 16 bits
Compression mode            : Lossy
Stream size                 : 486 MiB (12%)
Title                       : Original, 5.1 640 Kbps
Language                    : English
Service kind                : Complete Main
Default                     : No
Forced                      : No

Text
ID                          : 4
Format                      : UTF-8
Codec ID                    : S_TEXT/UTF8
Codec ID/Info               : UTF-8 Plain Text
Duration                    : 1 h 37 min
Bit rate                    : 55 b/s
Count of elements           : 1079
Stream size                 : 40.0 KiB (0%)
Title                       : Eng SDH
Language                    : English
Default                     : No
Forced                      : No

Menu
00:00:00.000                : en:00:00:00.000
00:12:13.524                : en:00:12:13.524
00:19:55.527                : en:00:19:55.527
00:29:55.877                : en:00:29:55.877
00:39:52.098                : en:00:39:52.098
00:48:11.388                : en:00:48:11.388
00:57:51.759                : en:00:57:51.759
01:09:43.137                : en:01:09:43.137
01:16:52.941                : en:01:16:52.941
01:23:58.450                : en:01:23:58.450
01:30:00.978                : en:01:30:00.978
01:36:06.427                : en:01:36:06.427
Скріншоти






Джерело: &
Подяка за українську доріжку п.Sando7


 Трекер:    Зареєстрований   

Завантажити / скачати фільм українською



відео для новачків



 Зареєстрований:   2017-10-23 21:09
 Розмір:   4.08 GB 
 Оцінка фільму:   6.1/10 (Голосів: 28)
   
vovang6 
Поважний учасник


З нами з: 27.08.12
Востаннє: 26.09.20
Повідомлень: 221

2017-10-25 12:30  
Як стрічка? Варто переглядати? Rolleyes (4)
Anonymous 







2017-10-25 12:34  
vovang6, додав офіційний трейлер.
vovang6 
Поважний учасник


З нами з: 27.08.12
Востаннє: 26.09.20
Повідомлень: 221

2017-10-28 17:58  
Ідея не погана, але чомусь я відразу зрозумів чим все закінчиться.
casper101 
VIP


З нами з: 03.12.09
Востаннє: 25.09.20
Повідомлень: 449

2018-01-18 14:59  
а чого не Регресія
hetzendorf 
Попереджень: 2
Попереджень: 2 


З нами з: 23.07.15
Востаннє: 26.09.20
Повідомлень: 2876

2020-09-13 01:08  
Емма Ватсон таки класна акторка, добре, що я бачив лише 1-го Гаріка Потного, решту — лише в озвучці від Гон-фільму, тому й не сприймаю її за Херміонку ^__^
Кіно чудово наочно демонструє можливості людей створювати уявну «реальність».
8/10

Ваш часовий пояс: GMT + 2 Години

Нова тема   Відповісти