Викрадення / Kidnap (2017) Ukr/Eng

Нові коментарі

Нова тема   Відповісти
Автор Повідомлення
Anonymous 







2017-10-22 08:07  
Викрадення / Kidnap (2017) Ukr/Eng

Викрадення / Kidnap (2017) Ukr/Eng


Жанр: трилер, драма
Країна: США



Кінокомпанія: Di Bonaventura Pictures, Gold Star Films, 606 Films
Режисер: Луїс Прієто / Luis Prieto
Актори: Геллі Беррі / Halle Berry, Сейдж Корреа / Sage Correa, Кріс МакДжинн / Chris McGinn, Лью Темпл / Lew Temple, Джейсон Джордж / Jason George, Аррон Шивер / Arron Shiver, Кертіс Бедфорд / Kurtis Bedford, Кармелла Райлі / Carmella Riley, Брайс Фішер / Brice Fisher, Дана Гурье / Dana Gourrier, Енді Вагнер / Andy Wagner, Малія Річардсон / Malia Richardson, Роберт Вокер Бранчо / Robert Walker Branchaud та інші

Сюжет:
Звичайний полудень в парку атракціонів. Багато дітлахів грають навколо, веселячись і радіючи кожній хвилині життя. Карла також вирішила погуляти зі своїм сином Френкі в цьому місці. Але це рішення обернулося для неї справжнім кошмаром – її хлопчик кудись пропав. В останній момент Карла помітила, що Френкі викрадають. Ні хвилини не вагаючись, мама кидається за сином, але зазнає невдачі. Розуміючи, що не можна зволікати, Карла не чекає допомоги поліції і сама відправляється на пошуки сина. Справжня мати поставить своє життя і життя інших людей заради того, щоб знайти свою дитину.
Офіційний український трейлер:


Рейтинг MPAA: R - особам до 17 років обов'язкова присутність батьків або дорослого опікуна
Вікова категорія: 16+

Тривалість: 01:34:56
Якість:
Відео:
кодек:
розмір кадру: 720 х 304
бітрейт: 1748 кб/с

Аудіо # 1:
мова: українська
переклад: багатоголосий закадровий
кодек: 2.0 [стерео]
бітрейт: 192 кб/с

Аудіо # 2:
мова: англійська
переклад: оригінал
кодек: 2.0
бітрейт: 192 кб/с
Info
Код:
General
Complete name               : Kidnap (2017) [Ukr,Eng] [Hurtom].avi
Format                      : AVI
Format/Info                 : Audio Video Interleave
File size                   : 1.42 GiB
Duration                    : 1 h 34 min
Overall bit rate            : 2 147 kb/s
Movie name                  : Викрадення / Kidnap (2017) Ukr/Eng [Hurtom]
Genre                       : трилер, драма
Writing application         : VirtualDubModUkr 1.5.10.2 (build 2542/release)
Writing library             : VirtualDubMod build 2542/release
Comment                     : https://toloka.to/t84781

Video
ID                          : 0
Format                      : MPEG-4 Visual
Format profile              : Advanced [email protected]
Format settings             : BVOP1 / Custom Matrix
Format settings, BVOP       : 1
Format settings, QPel       : No
Format settings, GMC        : No warppoints
Format settings, Matrix     : Custom
Codec ID                    :
Codec ID/Hint               :
Duration                    : 1 h 34 min
Bit rate                    : 1 748 kb/s
Width                       : 720 pixels
Height                      : 304 pixels
Display aspect ratio        : 2.35:1
Frame rate                  : 23.976 (24000/1001) FPS
Color space                 : YUV
Chroma subsampling          : 4:2:0
Bit depth                   : 8 bits
Scan type                   : Progressive
Compression mode            : Lossy
Bits/(Pixel*Frame)          : 0.333
Stream size                 : 1.16 GiB (81%)
Writing library             : 73

Audio #1
ID                          : 1
Format                      : AC-3
Format/Info                 : Audio Coding 3
Format settings, Endianness : Big
Codec ID                    : 2000
Duration                    : 1 h 34 min
Bit rate mode               : Constant
Bit rate                    : 192 kb/s
Channel(s)                  : 2 channels
Channel positions           : Front: L R
Sampling rate               : 48.0 kHz
Frame rate                  : 31.250 FPS (1536 SPF)
Bit depth                   : 16 bits
Compression mode            : Lossy
Stream size                 : 130 MiB (9%)
Alignment                   : Split accross interleaves
Interleave, duration        : 42  ms (1.00 video frame)
Interleave, preload duratio : 500  ms
Title                       : Ukr MVO [Megogo]
Service kind                : Complete Main

Audio #2
ID                          : 2
Format                      : AC-3
Format/Info                 : Audio Coding 3
Format settings, Endianness : Big
Codec ID                    : 2000
Duration                    : 1 h 34 min
Bit rate mode               : Constant
Bit rate                    : 192 kb/s
Channel(s)                  : 2 channels
Channel positions           : Front: L R
Sampling rate               : 48.0 kHz
Frame rate                  : 31.250 FPS (1536 SPF)
Bit depth                   : 16 bits
Compression mode            : Lossy
Stream size                 : 130 MiB (9%)
Alignment                   : Split accross interleaves
Interleave, duration        : 42  ms (1.00 video frame)
Interleave, preload duratio : 500  ms
Title                       : Eng
Service kind                : Complete Main
Скріншоти







Джерело: &
Подяка Sehrg-Gut за придбання доріжки, Electroz за синхронізацію


 Трекер:    Зареєстрований   

Завантажити / скачати фільм українською



відео для новачків



 Зареєстрований:   2017-10-22 08:28
 Розмір:   1.42 GB 
 Оцінка фільму:   6.4/10 (Голосів: 47)
   
Інші релізи
   Викрадення / Kidnap (2017) 720p Ukr/Eng | Sub Eng 11FrYkT  24 / 0   3.28 GB   2017-10-21 21:08 
   Викрадення / Kidnap (2017) AVC Ukr/Eng | Sub Eng Electroz  36 / 2   1.49 GB   2017-10-21 19:02 
olthik 
Свій


З нами з: 02.03.16
Востаннє: 12.12.17
Повідомлень: 70

2017-10-22 18:21  
Геллі Беррі переконливо зіграла.
bogdanich 
VIP


З нами з: 24.10.13
Востаннє: 13.12.17
Повідомлень: 517

2017-10-24 01:29  
Нудне, непереконливе та цілком посереднє кіно. Логіка вчинків головної героїні подекуди просто вбиває.
5/10.
Дякую!

alex2 
Частий відвідувач


З нами з: 01.02.12
Востаннє: 12.12.17
Повідомлень: 37

2017-10-27 15:18  
так, логіки нема у фільмі взагалі.
miramaxx 
Новенький


З нами з: 18.05.11
Востаннє: 12.12.17
Повідомлень: 18

2017-11-04 00:01  
цікавий, переглянути варто.
boroznaya 
VIP


З нами з: 02.11.12
Востаннє: 12.12.17
Повідомлень: 2379

2017-11-08 22:01  
Я гадаю, що кожна дитина у світі хотіла б мати таку люблячу, дбайливу та сміливу матір, як героїня Голлі Беррі. Мене акторська гра ГГ підкорила, і я їй повірила. Фільм обов'язково рекомендуватиму до перегляду усім без вагань. Забираю в колекцію та ставлю заслужене 7/10!
chubbchubbs 
Свій


З нами з: 29.03.08
Востаннє: 10.12.17
Повідомлень: 52

2017-11-08 22:58  
Подивлюся! Жінки немає.. Але деякі рецензенти мене відлякують образом новояворівського холівуду. То ж, - не гарантую, що думатиму довго..
Ваш часовий пояс: GMT + 2 Години

Нова тема   Відповісти