Листоноша Пет / Postman Pat: The Movie (2014) 1080p Ukr/Eng | Sub Eng

Нові коментарі

Нова тема   Відповісти
Останній раз роздавалося nazgul5 (2021-02-23)
Автор Повідомлення
sergiyko.5 
Забанено
Забанено


З нами з: 25.02.16
Востаннє: 29.10.20
Повідомлень: 3648

2017-10-21 22:37  
Листоноша Пет / Postman Pat: The Movie (2014) 1080p Ukr/Eng | Sub Eng

Листоноша Пет / Postman Pat: The Movie (2014) 1080p Ukr/Eng | Sub Eng

Жанр: пригоди, комедія
Країна: Велика Британія, США
Кінокомпанія: Classic Media, RGH Entertainment, Rubicon Group Holding
Режисер: Майкл Д’Іса-Хоган
Актори: Джим Бродбент, Джейн Карр, Робін Аткін Даунс, Сьюзен Дюрден, Грег Елліс, Руперт Грінт, Ден Хілдебранд, Ронан Кітінг, Стівен Менген, Парміндер К. Награ

Сюжет:
Скільки потрібно листонош щоб врятувати світ? Достатньо одного, якщо в нього напарник цікавий кіт, готовий до будь-яких пригод.




Тривалість: 01:27:17
Якість:

Відео: кодек: розмір кадру: 1920х1040 бітрейт: 8500 кб/с
Аудіо # 1: мова: українська переклад: багатоголосий закадровий кодек: 2.0 бітрейт: 192 кб/с
Джерело озвучення:
Аудіо # 2: мова: англійська переклад: оригінал кодек: 5.1 бітрейт: 640 кб/с
Субтитри: мова: англійська тип: програмні (м'які) формат: *.srt
Про файл:
General
Unique ID : 197955492078351816317929291661268350708 (0x94ECD74ACA5712A89C4CF532F675F6F4)
Complete name : D:\Torrents\MULT\Postman.Pat.The.Movie.2014.1080p..Ukr.Eng.
Format :
Format version : Version 4 / Version 2
File size : 5.69 GiB
Duration : 1 h 27 min
Overall bit rate : 9 333 kb/s
Movie name : Postman Pat The Movie 2014 1080p by sergiyko
Encoded date : UTC 2017-10-24 21:20:45
Writing application : v17.0.0 ('Be Ur Friend') 64-bit
Writing library : libebml v1.3.5 + v1.4.8
Cover : Yes
Attachments : cover.jpg

Video
ID : 1
Format : AVC
Format/Info : Advanced Video Codec
Format profile : [email protected]
Format settings, CABAC : Yes
Format settings, RefFrames : 4 frames
Codec ID : V_MPEG4/ISO/AVC
Duration : 1 h 27 min
Bit rate : 8 500 kb/s
Width : 1 920 pixels
Height : 1 040 pixels
Display aspect ratio : 1.85:1
Frame rate mode : Constant
Frame rate : 23.976 (24000/1001) FPS
Color space : YUV
Chroma subsampling : 4:2:0
Bit depth : 8 bits
Scan type : Progressive
Bits/(Pixel*Frame) : 0.178
Stream size : 5.18 GiB (91%)
Title : Postman Pat The Movie 2014
Writing library : core 142 r2431kMod ac76440
Encoding settings : cabac=1 / ref=4 / deblock=1:-1:-1 / analyse=0x3:0x113 / me=tesa / subme=11 / psy=1 / fade_compensate=0.00 / psy_rd=0.55:0.00 / mixed_ref=1 / me_range=32 / chroma_me=1 / trellis=2 / 8x8dct=1 / cqm=0 / deadzone=21,11 / fast_pskip=0 / chroma_qp_offset=-2 / threads=12 / lookahead_threads=2 / sliced_threads=0 / nr=0 / decimate=0 / interlaced=0 / bluray_compat=0 / constrained_intra=0 / fgo=0 / bframes=8 / b_pyramid=2 / b_adapt=2 / b_bias=0 / direct=3 / weightb=1 / open_gop=0 / weightp=2 / keyint=250 / keyint_min=23 / scenecut=40 / intra_refresh=0 / rc_lookahead=40 / rc=2pass / mbtree=0 / bitrate=8500 / ratetol=1.0 / qcomp=0.60 / qpmin=10 / qpmax=69 / qpstep=4 / cplxblur=20.0 / qblur=0.5 / vbv_maxrate=40000 / vbv_bufsize=30000 / nal_hrd=none / filler=0 / ip_ratio=1.35 / pb_ratio=1.10 / aq=3:1.00
Language : English
Default : Yes
Forced : No

Audio #1
ID : 2
Format : AC-3
Format/Info : Audio Coding 3
Format settings, Endianness : Big
Codec ID : A_AC3
Duration : 1 h 27 min
Bit rate mode : Constant
Bit rate : 192 kb/s
Channel(s) : 2 channels
Channel positions : Front: L R
Sampling rate : 48.0 kHz
Frame rate : 31.250 FPS (1536 SPF)
Bit depth : 16 bits
Compression mode : Lossy
Stream size : 120 MiB (2%)
Title : MOV | ТЕТ
Language : Ukrainian
Service kind : Complete Main
Default : Yes
Forced : Yes

Audio #2
ID : 3
Format : AC-3
Format/Info : Audio Coding 3
Format settings, Endianness : Big
Codec ID : A_AC3
Duration : 1 h 27 min
Bit rate mode : Constant
Bit rate : 640 kb/s
Channel(s) : 6 channels
Channel positions : Front: L C R, Side: L R, LFE
Sampling rate : 48.0 kHz
Frame rate : 31.250 FPS (1536 SPF)
Bit depth : 16 bits
Compression mode : Lossy
Stream size : 400 MiB (7%)
Title : Original
Language : English
Service kind : Complete Main
Default : No
Forced : No

Text
ID : 4
Format : UTF-8
Codec ID : S_TEXT/UTF8
Codec ID/Info : UTF-8 Plain Text
Duration : 1 h 19 min
Bit rate : 76 b/s
Count of elements : 1277
Stream size : 44.2 KiB (0%)
Language : English
Default : No
Forced : No

Menu
00:00:00.000 : en:00:00:00.000
00:07:45.382 : en:00:07:45.382
00:15:45.611 : en:00:15:45.611
00:20:58.215 : en:00:20:58.215
00:28:53.815 : en:00:28:53.815
00:36:51.000 : en:00:36:51.000
00:40:29.469 : en:00:40:29.469
00:45:10.583 : en:00:45:10.583
00:53:11.647 : en:00:53:11.647
01:02:30.205 : en:01:02:30.205
01:11:27.241 : en:01:11:27.241
01:21:12.201 : en:01:21:12.201
Скріншоти:


 Трекер:    Зареєстрований   

Завантажити / скачати мультфільм українською



відео для новачків



 Зареєстрований:   2017-10-25 11:15
 Розмір:   5.69 GB 
 Оцінка мультфільму:   8.9/10 (Голосів: 9)
   
Інші релізи
11FrYkT 
Модератор відео


З нами з: 20.02.11
Востаннє: 06.03.21
Повідомлень: 7153

2017-10-22 07:41  
sergiyko.5 написано:
Bits/(Pixel*Frame) : 0.117


це міні, а вони правилами заборонені, тому пошукайте краще відео

sergiyko.5 
Забанено
Забанено


З нами з: 25.02.16
Востаннє: 29.10.20
Повідомлень: 3648

2017-10-23 06:52  
11FrYkT написано:
...пошукайте краще відео


Кращої якості не знайшов. На роздачі Blu-Ray немає сидів.

Electroz 
Відео Гуртом - підтримка та поширення
Відео Гуртом - підтримка та поширення


З нами з: 18.09.14
Востаннє: 07.03.21
Повідомлень: 4339

2017-10-24 22:22  
sergiyko.5 написано:
Кращої якості не знайшов

Ось кращий ріп. https://fex.net/#!519327151734

sergiyko.5 
Забанено
Забанено


З нами з: 25.02.16
Востаннє: 29.10.20
Повідомлень: 3648

2017-10-25 11:19  
Торент оновлено до відео кращої якості. Є можливість зробити Remux, якщо зацікавить, пишіть, через декілька днів видалю, потрібне вільне місце на диску.
Drev11 
Свій


З нами з: 24.10.11
Востаннє: 04.03.21
Повідомлень: 113

2017-10-25 12:32  
як на мене, - рідкісна пурга )
Але на істину в останній інстанції не претендую))

Ігор Вінський 
VIP


З нами з: 17.03.11
Востаннє: 07.03.21
Повідомлень: 439

2017-10-25 17:24  
Я за Remux. Хай буде у колекції. Якщо не реліз тут, ну якщо ніхто не зацікавиться, то згоден на посилання де його можна завантажити. А доріжку нашу з цього релізу додам вже сам.
Ваш часовий пояс: GMT + 2 Години

Нова тема   Відповісти