Анабель 2: Створення / Annabelle: Creation (2017) Remux 1080p Ukr/Eng | Sub Eng

Нові коментарі

Нова тема   Відповісти
Автор Повідомлення
Anonymous 







2017-10-19 12:13  
Анабель 2: Створення / Annabelle: Creation (2017) Remux 1080p Ukr/Eng | Sub Eng

Анабель 2: Створення / Annabelle: Creation (2017) Remux 1080p Ukr/Eng | Sub Eng


Жанр: жахи, трилер, детектив
Країна: США



Кінокомпанія: Atomic Monster, New Line Cinema, RatPac-Dune Entertainment
Режисер: Девід Ф. Сандберг / David F. Sandberg
Актори: Ентоні ЛаПалья / Anthony LaPaglia, Самара Лі / Samara Lee, Міранда Отто / Miranda Otto, Бред Ґрінквіст / Brad Greenquist, Лулу Вілсон / Lulu Wilson, Таліта Бейтман / Talitha Eliana Bateman, Стефані Сігман / Stephanie Sigman, Марк Бремхолл / Mark Bramhall, Ґрейс Фултон / Grace Fulton, Алісія Вела-Бейлі / Alicia Vela-Bailey, Філіппа Култгард / Philippa Coulthard, Керрі О'Меллі / Kerry O'Malley та інші

Сюжет:
Через кілька років після трагічної загибелі їх маленької дочки, лялькар та його дружина запрошують у свій дім монахиню і кількох дівчаток з притулку. Скоро вони стануть мішенню для одержимого творіння лялькаря - Анабель.
Офіційний український трейлер:


Рейтинг MPAA: R - особам до 17 років обов'язкова присутність батьків або дорослого опікуна
Вікова категорія: 16+
Тривалість: 01:49:42
Якість: Remux

Відео:
кодек:
розмір кадру: 1920 х 1080
бітрейт: 27,7 Мб/с

Аудіо # 1:
мова: українська
переклад: професійний дубльований | студія Postmodern
кодек: 2.0
бітрейт: 192 кб/с
Інформація про дубляж
Переклад: Сергій Ковальчук
Режисер дубляжу: Катерина Брайковська
Звукорежисер: Андрій Желуденко
Звукорежисер перезапису: Микита Будаш
Ролі дублювали: Вероніка Лук'яненко, Галина Дубок, Катерина Качан, Марина Локтіонова, Антоніна Якушева, Михайло Кришталь, Катерина Манузіна, Лідія Муращенко, Софія Лозіна та інші
Аудіо # 2:
мова: англійська
переклад: оригінал
кодек: TrueHD 7.1
бітрейт: 3123 кб/с

Аудіо # 3:
мова: англійська
переклад: оригінал
кодек: 5.1
бітрейт: 640 кб/с

Аудіо # 4:
мова: англійська
переклад: коментарі режисера Девіда Ф. Сандберга
кодек: 2.0
бітрейт: 192 кб/с

Субтитри #1:
мова: українська (форсовані)
тип: пререндерні
формат: PGS

Субтитри #2:
мова: англійська (SDH)
тип: пререндерні
формат: PGS

Збережено оригінальні розділи, як на Blu-ray
Info
Код:
Complete name               : Annabelle 2. Creation (2017) [Ukr,Eng sub.Eng] Remux 1080p [Hurtom].
Format                      :
Format version              : Version 4 / Version 2
File size                   : 24.3 GiB
Duration                    : 1 h 49 min
Overall bit rate mode       : Variable
Overall bit rate            : 31.8 Mb/s
Movie name                  : Анабель 2: Створення / Annabelle: Creation (2017) [Ukr,Eng sub.Eng] Remux 1080p [Hurtom]
Released date               : 2017
Writing application         : v17.0.0 ('Be Ur Friend') 64-bit
Writing library             : libebml v1.3.5 + v1.4.8
Cover                       : Yes
Comment                     : http://www.imdb.com/title/tt5140878/
Attachments                 : cover.jpg
ARTIST                      : Ентоні ЛаПалья / Anthony LaPaglia, Самара Лі / Samara Lee, Міранда Отто / Miranda Otto, Бред Ґрінквіст / Brad Greenquist, Лулу Вілсон / Lulu Wilson, Таліта Бейтман / Talitha Eliana Bateman, Стефані Сігман / Stephanie Sigman, Марк Бремхолл / Mark Bramhall, Ґрейс Фултон / Grace Fulton, Алісія Вела-Бейлі / Alicia Vela-Bailey, Філіппа Култгард / Philippa Coulthard, Керрі О'Меллі / Kerry O'Malley та інші
DIRECTOR                    : Девід Ф. Сандберг / David F. Sandberg
GENRE                       : жахи, трилер, детектив
SYNOPSIS                    : Через кілька років після трагічної загибелі їх маленької дочки, лялькар та його дружина запрошують у свій дім монахиню і кількох дівчаток з притулку. Скоро вони стануть мішенню для одержимого творіння лялькаря - Анабель...
Url                         : https://toloka.to/t84664

Video
ID                          : 1
Format                      : AVC
Format/Info                 : Advanced Video Codec
Format profile              : [email protected]
Format settings             : CABAC / 4 Ref Frames
Format settings, CABAC      : Yes
Format settings, RefFrames  : 4 frames
Codec ID                    : V_MPEG4/ISO/AVC
Duration                    : 1 h 49 min
Bit rate mode               : Variable
Bit rate                    : 27.7 Mb/s
Maximum bit rate            : 32.0 Mb/s
Width                       : 1 920 pixels
Height                      : 1 080 pixels
Display aspect ratio        : 16:9
Frame rate mode             : Constant
Frame rate                  : 23.976 (24000/1001) FPS
Color space                 : YUV
Chroma subsampling          : 4:2:0
Bit depth                   : 8 bits
Scan type                   : Progressive
Bits/(Pixel*Frame)          : 0.558
Stream size                 : 21.3 GiB (87%)
Title                       : Анабель 2: Створення / Annabelle: Creation (2017) Remux 1080p Ukr/Eng [BlueBird]
Language                    : English
Default                     : Yes
Forced                      : No

Audio #1
ID                          : 2
Format                      : AC-3
Format/Info                 : Audio Coding 3
Mode                        : Dolby Digital
Format settings, Endianness : Big
Codec ID                    : A_AC3
Duration                    : 1 h 49 min
Bit rate mode               : Constant
Bit rate                    : 192 kb/s
Channel(s)                  : 2 channels
Channel positions           : Front: L R
Sampling rate               : 48.0 kHz
Frame rate                  : 31.250 FPS (1536 SPF)
Bit depth                   : 16 bits
Compression mode            : Lossy
Stream size                 : 151 MiB (1%)
Title                       : Dub [Postmodern, iTunes] 2.0 [Dolby Digital] 192 Kbps
Language                    : Ukrainian
Service kind                : Complete Main
Default                     : Yes
Forced                      : Yes

Audio #2
ID                          : 3
Format                      : TrueHD
Format profile              : TrueHD+Atmos / TrueHD
Codec ID                    : A_TRUEHD
Duration                    : 1 h 49 min
Bit rate mode               : Variable
Bit rate                    : 3 123 kb/s
Maximum bit rate            : 6 840 kb/s
Channel(s)                  : Object Based / 8 channels
Channel positions           : Object Based / Front: L C R, Side: L R, Back: L R, LFE
Sampling rate               :  / 48.0 kHz
Frame rate                  : 1 200.000 FPS (40 SPF)
Compression mode            : Lossless
Stream size                 : 2.39 GiB (10%)
Title                       : Original, TrueHD 7.1 3123 Kbps
Language                    : English
Default                     : No
Forced                      : No

Audio #3
ID                          : 4
Format                      : AC-3
Format/Info                 : Audio Coding 3
Format settings, Endianness : Big
Codec ID                    : A_AC3
Duration                    : 1 h 49 min
Bit rate mode               : Constant
Bit rate                    : 448 kb/s
Channel(s)                  : 6 channels
Channel positions           : Front: L C R, Side: L R, LFE
Sampling rate               : 48.0 kHz
Frame rate                  : 31.250 FPS (1536 SPF)
Bit depth                   : 16 bits
Compression mode            : Lossy
Stream size                 : 352 MiB (1%)
Title                       : Original, 5.1 640 Kbps
Language                    : English
Service kind                : Complete Main
Default                     : No
Forced                      : No

Audio #4
ID                          : 5
Format                      : AC-3
Format/Info                 : Audio Coding 3
Mode                        : Dolby Digital
Format settings, Endianness : Big
Codec ID                    : A_AC3
Duration                    : 1 h 49 min
Bit rate mode               : Constant
Bit rate                    : 192 kb/s
Channel(s)                  : 2 channels
Channel positions           : Front: L R
Sampling rate               : 48.0 kHz
Frame rate                  : 31.250 FPS (1536 SPF)
Bit depth                   : 16 bits
Compression mode            : Lossy
Stream size                 : 151 MiB (1%)
Title                       : Commentary David F. Sandberg
Language                    : English
Service kind                : Complete Main
Default                     : No
Forced                      : No

Text #1
ID                          : 6
Format                      : PGS
Muxing mode                 : zlib
Codec ID                    : S_HDMV/PGS
Codec ID/Info               : Picture based subtitle format used on BDs/HD-DVDs
Duration                    : 1 h 47 min
Bit rate                    : 489 b/s
Count of elements           : 32
Stream size                 : 386 KiB (0%)
Title                       : Ukr forced
Language                    : Ukrainian
Default                     : Yes
Forced                      : Yes

Text #2
ID                          : 7
Format                      : PGS
Muxing mode                 : zlib
Codec ID                    : S_HDMV/PGS
Codec ID/Info               : Picture based subtitle format used on BDs/HD-DVDs
Duration                    : 1 h 47 min
Bit rate                    : 20.9 kb/s
Count of elements           : 2044
Stream size                 : 16.1 MiB (0%)
Title                       : Eng SDH
Language                    : English
Default                     : No
Forced                      : No

Menu
00:00:00.000                : en:Chapter 1
00:11:25.350                : en:Chapter 2
00:20:35.067                : en:Chapter 3
00:30:33.288                : en:Chapter 4
00:42:03.603                : en:Chapter 5
00:52:39.239                : en:Chapter 6
01:03:12.496                : en:Chapter 7
01:13:14.680                : en:Chapter 8
01:23:55.613                : en:Chapter 9
01:33:19.301                : en:Chapter 10
01:43:27.618                : en:Chapter 11
Скріншоти:








Джерело: &


Золотий реліз (завантажене не впливає на рейтинг)
 Трекер:    Зареєстрований   

Завантажити / скачати фільм українською



відео для новачків



 Зареєстрований:   2017-10-21 21:17
 Розмір:   24.34 GB 
 Оцінка фільму:   6.7/10 (Голосів: 35)
   
Інші релізи
_sergius 
Свій


З нами з: 26.03.11
Востаннє: 19.05.19
Повідомлень: 93

2017-11-01 18:32  
Передивився обидві частини. І ніби нічого такого особливого, але було стрьомновато. Не знаю чого всі так низько оцінили фільм, моя особиста оцінка 9/10. Особливо, що стосується цієї частини.
Uberwinder 
VIP


З нами з: 18.11.16
Востаннє: 19.05.19
Повідомлень: 277

2018-01-01 23:59  
Як на мене, то досить посередній фільм...
Ваш часовий пояс: GMT + 2 Години

Нова тема   Відповісти