Анабель 2: Створення / Annabelle: Creation (2017)

Нові коментарі

Нова тема   Відповісти
Автор Повідомлення
Anonymous 







2017-10-19 11:03  
Анабель 2: Створення / Annabelle: Creation (2017)

Анабель 2: Створення / Annabelle: Creation (2017)


Жанр: жахи, трилер, детектив
Країна: США



Кінокомпанія: Atomic Monster, New Line Cinema, RatPac-Dune Entertainment
Режисер: Девід Ф. Сандберг / David F. Sandberg
Актори: Ентоні ЛаПалья / Anthony LaPaglia, Самара Лі / Samara Lee, Міранда Отто / Miranda Otto, Бред Ґрінквіст / Brad Greenquist, Лулу Вілсон / Lulu Wilson, Таліта Бейтман / Talitha Eliana Bateman, Стефані Сігман / Stephanie Sigman, Марк Бремхолл / Mark Bramhall, Ґрейс Фултон / Grace Fulton, Алісія Вела-Бейлі / Alicia Vela-Bailey, Філіппа Култгард / Philippa Coulthard, Керрі О'Меллі / Kerry O'Malley та інші

Сюжет:
Через кілька років після трагічної загибелі їх маленької дочки, лялькар та його дружина запрошують у свій дім монахиню і кількох дівчаток з притулку. Скоро вони стануть мішенню для одержимого творіння лялькаря - Анабель.
Офіційний український трейлер:


Рейтинг MPAA: R - особам до 17 років обов'язкова присутність батьків або дорослого опікуна
Вікова категорія: 16+
Тривалість: 01:49:42
Якість: [Hurtom, джерело - Remux]

Відео:
кодек:
розмір кадру: 720 х 304
бітрейт: 1713 кб/с

Аудіо # 1:
мова: українська
переклад: професійний дубльований | студія Postmodern
кодек: 2.0
бітрейт: 192 кб/с
Інформація про дубляж
Переклад: Сергій Ковальчук
Режисер дубляжу: Катерина Брайковська
Звукорежисер: Андрій Желуденко
Звукорежисер перезапису: Микита Будаш
Ролі дублювали: Вероніка Лук'яненко, Галина Дубок, Катерина Качан, Марина Локтіонова, Антоніна Якушева, Михайло Кришталь, Катерина Манузіна, Лідія Муращенко, Софія Лозіна та інші
Субтитри:
мова: українська (форсовані)
тип: програмні (м'які)
формат: *.srt
Info
Код:
General
Complete name               : Annabelle 2 Creation (2017) [Hurtom].avi
Format                      : AVI
Format/Info                 : Audio Video Interleave
File size                   : 1.47 GiB
Duration                    : 1 h 49 min
Overall bit rate            : 1 914 kb/s
Movie name                  : Анабель 2: Створення / Annabelle: Creation (2017) [Hurtom]
Genre                       : жахи, трилер, детектив
Writing application         : VirtualDubModUkr 1.5.10.2 (build 2542/release)
Writing library             : VirtualDubMod build 2542/release
Comment                     : https://toloka.to/t84663

Video
ID                          : 0
Format                      : MPEG-4 Visual
Format profile              : Advanced [email protected]
Format settings             : BVOP1
Format settings, BVOP       : 1
Format settings, QPel       : No
Format settings, GMC        : No warppoints
Format settings, Matrix     : Default (MPEG)
Codec ID                    :
Codec ID/Hint               :
Duration                    : 1 h 49 min
Bit rate                    : 1 713 kb/s
Width                       : 720 pixels
Height                      : 304 pixels
Display aspect ratio        : 2.35:1
Frame rate                  : 23.976 (24000/1001) FPS
Color space                 : YUV
Chroma subsampling          : 4:2:0
Bit depth                   : 8 bits
Scan type                   : Progressive
Compression mode            : Lossy
Bits/(Pixel*Frame)          : 0.326
Stream size                 : 1.31 GiB (89%)
Writing library             : 67

Audio
ID                          : 1
Format                      : AC-3
Format/Info                 : Audio Coding 3
Mode                        : Dolby Digital
Format settings, Endianness : Big
Codec ID                    : 2000
Duration                    : 1 h 49 min
Bit rate mode               : Constant
Bit rate                    : 192 kb/s
Channel(s)                  : 2 channels
Channel positions           : Front: L R
Sampling rate               : 48.0 kHz
Frame rate                  : 31.250 FPS (1536 SPF)
Bit depth                   : 16 bits
Compression mode            : Lossy
Stream size                 : 151 MiB (10%)
Alignment                   : Split accross interleaves
Interleave, duration        : 42  ms (1.00 video frame)
Interleave, preload duratio : 500  ms
Title                       : Ukr Dub [Postmodern, iTunes]
Service kind                : Complete Main
Скріншоти








Джерело: &


 Трекер:    Зареєстрований   

Завантажити / скачати фільм українською



відео для новачків



 Зареєстрований:   2017-10-21 17:49
 Розмір:   1.47 GB 
 Оцінка фільму:   6.6/10 (Голосів: 34)
   
Ванько 
Поважний учасник


З нами з: 27.08.09
Востаннє: 12.12.17
Повідомлень: 172

2017-10-23 07:28  
Рейтинг виправданий, як на мене. Не сказав би, що фільм страшний, однак щось у ньому є.
boroznaya 
VIP


З нами з: 02.11.12
Востаннє: 12.12.17
Повідомлень: 2379

2017-12-09 17:32  
Я чекала на появу цього фільму. Чекала з нетерпінням.
Хотілось дізнатись передісторію цієї страхітливої ляльки.
І хоч я вже доволі таки доросла тітка, але на деяких сценах мені було страшно.
Тому, без вагань поставлю 7/10.

Ваш часовий пояс: GMT + 2 Години

Нова тема   Відповісти