Хай завтра буде краще (Сезон 1) / Better things (Season 1) (2016) 720p Eng | sub Ukr/Eng

Нові коментарі

Нова тема   Відповісти
Останній раз роздавалося RobertMenus (2020-11-26)
Автор Повідомлення
sneakyrobot 
Новенький


З нами з: 18.10.17
Востаннє: 05.04.20
Повідомлень: 6

2017-10-18 19:37  
Хай завтра буде краще (Сезон 1) / Better things (Season 1) (2016) 720p Eng | sub Ukr/Eng

Хай завтра буде краще (Сезон 1) / Better things (Season 1) (2016) 720p Eng | sub Ukr/Eng


Жанр: комедія, драма
Країна: США



Кінокомпанія: Pig Newton, Slam Book, 3 Arts Entertainment, FXP
Режисер: Луї Сі-Кей (Louis C.K.), Памела Адлон (Pamela Adlon M.), Блейр Брірд (Blair Breard), Дейв Бекі (Dave Becky)
Актори: Памела Адлон (Pamela Adlon M.), Майкі Медісон (Mikey Madison), Ганна Аліґуд (Hannah Alligood), Олівія Едвард (Olivia Edward), Сілія Імрі (Celia Imrie)

Сюжет:
Акторка виховує трьох доньок, при цьому вона мусить витримувати тиск праці у Голівуді й ролі єдиного вихователя для своїх дітей.


Тривалість: 03:34:26
Перелік серій

01. Sam/Pilot / Сем/Пілотна
02. Period / Період
03. Brown / Коричневий
04. Woman Is the Something of the Something / Жінка - це щось від чогось
05. Future Fever / Майбутня лихоманка
06. Alarms / Сигнали
07. Duke's Chorus / Дюковий хор
08. Scary Fun / Страшні веселощі
09. Hair of the Dog / Собаче волосся
10. Only Women Bleed / Лише у жінок кровить
Відео:
кодек:
розмір кадру: 1280 х 720
бітрейт: 2300 кб/с

Аудіо:
мова: англійська
кодек: ACC
бітрейт: 268 кб/с

Субтитри:
мова: українська
тип: програмні (м'які)
формат: *.srt

Джерело укр. субтитрів: власний переклад

Субтитри:
мова: англійська
тип: програмні (м'які)
формат: *.srt

Джерело анг. субтитрів: addic7ed.com
Скріншоти





Info

General
Complete name : D:\torrents\Better Things (season 1) (2016) Mp4 720p eng ukr_subs\Better Things S01E01.mp4
Format : MPEG-4
Format profile : Base Media
Codec ID : isom (isom/iso2/avc1/mp41)
File size : 364 MiB
Duration : 22 min 1 s
Overall bit rate mode : Variable
Overall bit rate : 2 308 kb/s
Encoded date : UTC 2016-11-06 19:48:09
Tagged date : UTC 2016-11-06 19:48:09
Writing application : Lavf55.47.100

Video
ID : 1
Format : AVC
Format/Info : Advanced Video Codec
Format profile : [email protected]
Format settings, CABAC : Yes
Format settings, RefFrames : 6 frames
Codec ID : avc1
Codec ID/Info : Advanced Video Coding
Duration : 22 min 1 s
Bit rate : 2 033 kb/s
Width : 1 280 pixels
Height : 720 pixels
Display aspect ratio : 16:9
Frame rate mode : Constant
Frame rate : 23.976 (24000/1001) FPS
Color space : YUV
Chroma subsampling : 4:2:0
Bit depth : 8 bits
Scan type : Progressive
Bits/(Pixel*Frame) : 0.092
Stream size : 320 MiB (88%)
Writing library : core 142 r2431
Encoding settings : cabac=1 / ref=6 / deblock=1:0:0 / analyse=0x3:0x133 / me=umh / subme=8 / psy=1 / psy_rd=1.00:0.00 / mixed_ref=1 / me_range=16 / chroma_me=1 / trellis=0 / 8x8dct=1 / cqm=0 / deadzone=21,11 / fast_pskip=0 / chroma_qp_offset=-2 / threads=18 / lookahead_threads=4 / sliced_threads=0 / nr=0 / decimate=1 / interlaced=0 / bluray_compat=0 / constrained_intra=0 / bframes=6 / b_pyramid=2 / b_adapt=2 / b_bias=0 / direct=3 / weightb=1 / open_gop=0 / weightp=2 / keyint=250 / keyint_min=25 / scenecut=40 / intra_refresh=0 / rc_lookahead=50 / rc=2pass / mbtree=1 / bitrate=2033 / ratetol=1.0 / qcomp=0.60 / qpmin=10 / qpmax=51 / qpstep=4 / cplxblur=20.0 / qblur=0.5 / vbv_maxrate=24000 / vbv_bufsize=24000 / nal_hrd=none / filler=0 / ip_ratio=1.40 / aq=1:1.00
Encoded date : UTC 2016-11-06 19:48:09
Tagged date : UTC 2016-11-06 19:48:09

Audio
ID : 2
Format :
Format/Info : Advanced Audio Codec
Format profile : LC
Codec ID : 40
Duration : 22 min 1 s
Bit rate mode : Variable
Bit rate : 265 kb/s
Maximum bit rate : 384 kb/s
Channel(s) : 2 channels
Channel(s)_Original : 6 channels
Channel positions : Front: L C R, Side: L R, LFE
Sampling rate : 48.0 kHz
Frame rate : 46.875 FPS (1024 SPF)
Compression mode : Lossy
Stream size : 42.4 MiB (12%)
Default : Yes
Alternate group : 1
Encoded date : UTC 2016-11-06 19:48:09
Tagged date : UTC 2016-11-06 19:48:09
Джерело: інше

Особиста оцінка: 8 - мені сподобалося


Авторський реліз (завантажувати можна без реєстрації)
 Трекер:    Зареєстрований   

Завантажити / скачати серіал українською



відео для новачків



 Зареєстрований:   2017-10-18 19:37
 Розмір:   3.43 GB 
 Оцінка серіалу:   9.7/10 (Голосів: 3)
   
11FrYkT 
Модератор відео


З нами з: 20.02.11
Востаннє: 01.12.20
Повідомлень: 7040

2017-10-18 20:27  
sneakyrobot написано:
Mp4

це не якість
Цитата:
бітрейт: кб/с

вказати бітрейт відео
Цитата:
Аудіо:
мова: англійська
кодек: ACC
бітрейт: кб/с

оформити

Додати звіт Медіаінфо, перелік серій з назвами в темі, а ткаж хоч 1 скрін з сабами і також джерело сабів

sneakyrobot 
Новенький


З нами з: 18.10.17
Востаннє: 05.04.20
Повідомлень: 6

2017-10-18 20:36  
Що таке звіт Медіаінфо?
ПРо перелік серій з назвами у шаблоні ні слова.

leicheman 
Відео Гуртом - фільмокрай
Відео Гуртом - фільмокрай


З нами з: 03.07.14
Востаннє: 01.12.20
Повідомлень: 5697

2017-10-18 20:57  
sneakyrobot написано:
Що таке звіт Медіаінфо?

наприклад берете відкриваєте серію у mpc плеєрі і жмакаєте на властивості там буде медіаінфо
ви усе те копіюєте і кидаєте сюди під спойлер, як і скріншоти.

sneakyrobot 
Новенький


З нами з: 18.10.17
Востаннє: 05.04.20
Повідомлень: 6

2017-10-18 21:24  
У мене vlc. Я у ньому таке узяти можу, так щоб зкопіювати?

Додано через 21 хвилину 51 секунду:

Ну все, наче усе виправив. Перевіряйте.

Ваш часовий пояс: GMT + 2 Години

Нова тема   Відповісти