Слава / Glory (1989) 1080p Ukr/Eng | Sub Eng

Нові коментарі

Нова тема   Відповісти
Автор Повідомлення
wwwombat 
Відео Гуртом - підтримка та поширення
Відео Гуртом - підтримка та поширення


З нами з: 09.01.12
Востаннє: 11.12.18
Повідомлень: 15

2017-10-18 19:08  
Слава / Glory (1989) 1080p Ukr/Eng | Sub Eng

Слава / Glory (1989) 1080p Ukr/Eng | Sub Eng
Оригінальний постер


Жанр: драма, історичний, біографічний
Країна: США



Кінокомпанія: TriStar Pictures
Режисер: Едвард Цвік
Актори: Морган Фрімен, Дензел Вашингтон, Метью Бродерік, Кері Елвес, Андре Брауер

Сюжет:
У фільмі розповідається реальна історія 54-го добровольчого полку армії США, який брав участь у Громадянській війні (1861-1865). 54-ий полк був першим підрозділом американської армії сформований повністю з темношкірих (крім кількох найголовніших офіцерів).


Тривалість: 02:02:14
Якість: 1080p
Відео:
кодек:
розмір кадру: 1920x1040
бітрейт: 11,5 Мбіт/сек

Аудіо # 1:
мова: українська
переклад: багатоголосий закадровий
кодек: 2.0
бітрейт: 192 кб/с

Аудіо # 2:
мова: англійська
переклад: оригінал
кодек: 5.1
бітрейт: 1510 кб/с

Субтитри:
мова: англійська
тип: програмні (м'які)
формат: *.
Скріншоти







Info
Код:
General
Unique ID                      : 216809868396473133838736724644683058622 (0xA31C0FD0B497F68088834EAC2B140DBE)
Complete name                  : \\192.168.0.2\Filmz\Drama\Слава - Glory (1989) AVC (1080p).
Format                         :
Format version                 : Version 4 / Version 2
File size                      : 11.3 GiB
Duration                       : 2 h 2 min
Overall bit rate               : 13.2 Mb/s
Movie name                     : Glory (1989) - Release for HDCLUB
Encoded date                   : UTC 2017-10-18 16:23:43
Writing application            : v17.0.0 ('Be Ur Friend') 64-bit
Writing library                : libebml v1.3.5 + v1.4.8

Video
ID                             : 1
Format                         : AVC
Format/Info                    : Advanced Video Codec
Format profile                 : [email protected]
Format settings, CABAC         : Yes
Format settings, RefFrames     : 4 frames
Codec ID                       : V_MPEG4/ISO/AVC
Duration                       : 2 h 2 min
Bit rate                       : 11.5 Mb/s
Width                          : 1 920 pixels
Height                         : 1 040 pixels
Display aspect ratio           : 1.85:1
Frame rate mode                : Constant
Frame rate                     : 23.976 (24000/1001) FPS
Color space                    : YUV
Chroma subsampling             : 4:2:0
Bit depth                      : 8 bits
Scan type                      : Progressive
Bits/(Pixel*Frame)             : 0.240
Stream size                    : 9.82 GiB (87%)
Writing library                : core 67 r1162M f7bfcfa
Encoding settings              : cabac=1 / ref=4 / deblock=1:-2:-3 / analyse=0x1:0x111 / me=umh / subme=9 / psy_rd=1.1:0.0 / mixed_ref=1 / me_range=16 / chroma_me=1 / trellis=2 / 8x8dct=0 / cqm=0 / deadzone=21,11 / chroma_qp_offset=-2 / threads=12 / nr=0 / decimate=1 / mbaff=0 / bframes=4 / b_pyramid=1 / b_adapt=2 / b_bias=0 / direct=2 / wpredb=1 / keyint=250 / keyint_min=25 / scenecut=40 / rc=2pass / bitrate=11498 / ratetol=1.0 / qcomp=0.60 / qpmin=10 / qpmax=51 / qpstep=4 / cplxblur=20.0 / qblur=0.5 / ip_ratio=1.40 / pb_ratio=1.30 / aq=1:1.00
Language                       : English
Default                        : Yes
Forced                         : No

Audio #1
ID                             : 2
Format                         : AC-3
Format/Info                    : Audio Coding 3
Format settings, Endianness    : Big
Codec ID                       : A_AC3
Duration                       : 2 h 2 min
Bit rate mode                  : Constant
Bit rate                       : 192 kb/s
Channel(s)                     : 2 channels
Channel positions              : Front: L R
Sampling rate                  : 48.0 kHz
Frame rate                     : 31.250 FPS (1536 SPF)
Bit depth                      : 16 bits
Compression mode               : Lossy
Stream size                    : 168 MiB (1%)
Title                          : 2.0 192 kbps UKR
Language                       : Ukrainian
Service kind                   : Complete Main
Default                        : No
Forced                         : No

Audio #2
ID                             : 3
Format                         :
Format/Info                    : Digital Theater Systems
Mode                           : 16
Format settings, Endianness    : Big
Codec ID                       : A_DTS
Duration                       : 2 h 2 min
Bit rate mode                  : Constant
Bit rate                       : 1 510 kb/s
Channel(s)                     : 6 channels
Channel positions              : Front: L C R, Side: L R, LFE
Sampling rate                  : 48.0 kHz
Frame rate                     : 93.750 FPS (512 SPF)
Bit depth                      : 24 bits
Compression mode               : Lossy
Stream size                    : 1.29 GiB (11%)
Title                          : 1536 #3
Language                       : English
Default                        : No
Forced                         : No

Text
ID                             : 4
Format                         :
Codec ID                       : S_TEXT/
Codec ID/Info                  : Advanced Sub Station Alpha
Duration                       : 1 h 50 min
Bit rate                       : 91 b/s
Count of elements              : 1220
Compression mode               : Lossless
Stream size                    : 74.4 KiB (0%)
Language                       : English
Default                        : No
Forced                         : No

Джерело: &
Особиста оцінка: 0 - не дивився Wide grin


Срібний реліз (на рейтинг впливає 50% завантаженого)
 Трекер:    Зареєстрований   

Завантажити / скачати фільм українською



відео для новачків



 Зареєстрований:   2017-10-18 19:08
 Розмір:   11.27 GB 
 Оцінка фільму:   9.8/10 (Голосів: 8)
   
Інші релізи
   Слава / Glory (1989) Ukr/Eng | sub Eng yuranako  4 / 0   2.18 GB   2012-09-19 22:34 
kuzyag 
Новенький


З нами з: 17.03.09
Востаннє: 10.12.18
Повідомлень: 20

2017-10-19 07:15  
Спасибі за фільм.
Чи не могли б ви в описі замінити слово "негри" на "темношкірі", чи щось таке. Бо те "негри" якось неприємно звучить.
Дякую.

PaBLo.Che 
VIP


З нами з: 20.04.09
Востаннє: 26.11.18
Повідомлень: 279

2017-10-19 08:38  
kuzyag написано:
"негри" якось неприємно звучить.

Нормально звучить, так само як і "жид".

Jani307 
Свій


З нами з: 09.06.14
Востаннє: 11.12.18
Повідомлень: 99

2017-10-19 08:56  
PaBLo.Che написано:

kuzyag написано:
"негри" якось неприємно звучить.

Нормально звучить, так само як і "жид".

В моєму (імовірно, хибному) уявленні, слово "жид" і задумувалося, як ображливе, а от "негр" - таким поступово стало.
Негайно потрібен політолог/культуролог для прояснення ситуації.

П.С.
"Лише нігер може назвати нігера нігером..."

PaBLo.Che 
VIP


З нами з: 20.04.09
Востаннє: 26.11.18
Повідомлень: 279

2017-10-19 09:16  
Jani307 написано:
В моєму (імовірно, хибному) уявленні, слово "жид" і задумувалося, як ображливе


Заглянте в Вікіпедію.
"Жид" стало образливим у нас завдяки москалям.

Jani307 
Свій


З нами з: 09.06.14
Востаннє: 11.12.18
Повідомлень: 99

2017-10-19 13:12  
PaBLo.Che написано:
"Жид" стало образливим у нас завдяки москалям.

Якраз заглянув. Так (якщо та вікі не спотворює, як часто буває).

Ярпен 
Оцифрування книг Гуртом
Оцифрування книг Гуртом


З нами з: 09.10.13
Востаннє: 24.08.18
Повідомлень: 2044

2017-10-19 13:28  
wwwombat написано:
54-ий полк був першим підрозділом американської армії сформований повністю з темношкірих

Ги. З котрих "темношкірих", з циганів, чи що?

От із тієї ж вікіпедії:
Цитата:
Негр — назва людини негроїдної раси. Слово часто трапляється в літературі або просторіччі. У багатьох країнах Європи й Північної Америки в наш час частіше вживається позначення «темношкірі люди африканського походження», зокрема термін «афроамериканці» щодо негрів США. Слово негр та похідні від нього вважають застарілим етнонімами, неввічливими та політично некоректними, розглядають як принизливі, образливі та расистські, хоча в деяких мовах, зокрема і в українській, слово має нейтральне значення.

PaBLo.Che 
VIP


З нами з: 20.04.09
Востаннє: 26.11.18
Повідомлень: 279

2017-10-19 13:40  
Ярпен написано:
з циганів, чи що?

З індусів Wide grin

oleg.tromsa 
Новенький


З нами з: 20.09.11
Востаннє: 11.12.18
Повідомлень: 7

2017-10-19 20:16  
У малоросів при слові жид чи негр явно наступає ерекція... Інакше, такого нестримного та нездорового потягу до вживання цих, а ще деяких інших, застарілих слів я не доберу.
PaBLo.Che 
VIP


З нами з: 20.04.09
Востаннє: 26.11.18
Повідомлень: 279

2017-10-20 09:26  
oleg.tromsa написано:
У малоросів при слові жид чи негр явно наступає ерекція.

А у решти при цих словах явно наступає імпотенція чи шо?
oleg.tromsa написано:
ще деяких інших, застарілих слів

А чого соромитися своїх рідних слів?

hetzendorf 
Попереджень: 1
Попереджень: 1 


З нами з: 23.07.15
Востаннє: 12.12.18
Повідомлень: 1545

2017-10-20 17:34  
PaBLo.Che написано:
Нормально звучить, так само як і "жид".

«Негр» нормально, «жид» — ні.
oleg.tromsa написано:
У малоросів при слові жид чи негр явно наступає ерекція

А в малопіндосів?

Skyrom 
Новенький


З нами з: 11.11.13
Востаннє: 01.03.18
Повідомлень: 10

2017-10-20 23:01  
Жид - у бувшій російській імперії і СРСР асоціювалося з певним способом життя...

Наспрввді ЖИД в українській і польській мові то просто вказує приналежнісь до певної нації, а не до способу життя( як це вважалось у Росії та СРСР)

На ЧОРНИЙ теж багато можуть ображатися; Але чомусь не ображаються на БІЛИЙ, ЖОВТИЙ, БЛІДОЛИЦИЙ.

Така собі політкоректність... Тупо, але факт!

jaral 
Відео Гуртом - підтримка та поширення
Відео Гуртом - підтримка та поширення


З нами з: 18.10.07
Востаннє: 11.12.18
Повідомлень: 694

2017-10-21 00:42  
hetzendorf написано:
«Негр» нормально
Якщо негр - це нормально, то i циган, жид, мазур - взагалі цукерочка, а роми, євреї, ляхи образливо!
Mr Yuran 
Відео Гуртом - команда HD
Відео Гуртом - команда HD


З нами з: 15.11.11
Востаннє: 11.12.18
Повідомлень: 447

2017-10-21 07:31  
borinsky 
Новенький


З нами з: 09.03.12
Востаннє: 06.11.18
Повідомлень: 1

2017-10-22 20:55  
Із коментів вище я так і не зрозумів - як фільм? Чи вартий перегляду?
hetzendorf 
Попереджень: 1
Попереджень: 1 


З нами з: 23.07.15
Востаннє: 12.12.18
Повідомлень: 1545

2017-10-23 00:00  
jaral
Слова «негр» і «циган» в українській мові цілком нормальні і нейтральні. Завжди такими були й лишилися. На відміну від слова «жид», що раніше було також нормальним і нейтральним, але зараз сприймається як образливе.

0mage0 
VIP


З нами з: 06.10.15
Востаннє: 10.12.18
Повідомлень: 406

2018-02-25 11:02  
Цікавий фільм. Не знаю, може так і було насправді, але у цього командувача якесь роздвоєння особистості. То він до своїх темношкірих воїнів ставиться як до лайна, то наче як поважає їх. Не розбереш його.
У перекладі є значна помилка. На 25-й хвилині зачитується повідомлення про те, що Конфедерація затвердила декларацію, що темношкірі, що застосують зброю проти Конфедерації, будуть повернені до рабовласницького штату, а в урядовій формі Сполучених Штатів, буде страчений. А переклали спочатку "Об'єднаний конгрес", без уточнення, що йдеться про Конфедерацію, а потім, "негр, що застосує зброю проти Сполучених Штатів"... Тобто перекладачі не бачать різниці між Сполученими Штатами (цей полк у фільмі воює за них), та Конфедерацією (це противники), і перекладають обидві сторони як Сполучені штати о_О

vavlap 
Частий відвідувач


З нами з: 24.01.15
Востаннє: 11.12.18
Повідомлень: 42

2018-09-16 13:22  
PaBLo.Che написано:

З індусів


Індуси належать до негроїдної раси, тобто ті ж само негри Wide grin

Ваш часовий пояс: GMT + 2 Години

Нова тема   Відповісти