Невидимий батальйон (2017) Ukr | Sub Ukr

Нові коментарі

Нова тема   Відповісти
Автор Повідомлення
Anonymous 







2017-10-18 16:37  
Невидимий батальйон (2017) Ukr | Sub Ukr

Невидимий батальйон (2017) Ukr | Sub Ukr


Жанр: документальний, історичний, біографічний
Країна: Україна

Фільм створено: Institute of gender programs, USAID Ukraine, Internews in Ukraine
Режисери: Світлана Ліщинська, Ірина Цілик, Аліна Горлова
У фільмі знімались: Юлія Паєвська, Андріана Сусак, Оксана Якубова, Юлія Матвієнко, Олена Білозерська, Дарія Зубенко

Сюжет:
Перший повнометражний документальний кінопроект про участь українських жінок у війні з Росією. Шість жіночих історій, розказаних трьома режисерками, які покажуть війну як вона є. Ви побачите, що українські жінки воюють разом з чоловіками на рівних, а російських солдатів просто перемагають. Історія, нашої війни на шляху до перемоги, яка відбувається прямо зараз.


Тривалість: 01:27:03
Якість:
Відео:
кодек:
розмір кадру: 720 х 400
бітрейт: 2189 кб/с

Аудіо:
мова: українська, російська
переклад: оригінал
кодек: 2.0
бітрейт: 192 кб/с

Субтитри:
мова: українська
тип: вбудовані (жорсткі)

*примітка: Автори фільму чомусь вирізали відео знищення окупантів Оленою Білозерською на День Незалежності-2017, залишивши лише звук (00:47:02-00:47:22). Оригінальне відео без цензури можна переглянути на персональному сайті Олени або за цим посиланням. Це чи не єдине оприлюднене відео роботи українського снайпера, зняте через тепловізор за весь період війни.

*примітка 2: видалення кадрів знищення окупантів було вимогою заокеанських замовників.
Info
Код:
General
Complete name               : Невидимий батальйон (2017) [Hurtom].avi
Format                      : AVI
Format/Info                 : Audio Video Interleave
File size                   : 1.45 GiB
Duration                    : 1 h 27 min
Overall bit rate            : 2 390 kb/s
Movie name                  : Невидимий батальйон / Invisible Battalion (2017) [Hurtom]
Genre                       : документальний, історичний, біографічний
Writing application         : VirtualDubModUkr 1.5.10.2 (build 2542/release)
Writing library             : VirtualDubMod build 2542/release
Comment                     : https://toloka.to/t84652

Video
ID                          : 0
Format                      : MPEG-4 Visual
Format profile              : Advanced [email protected]
Format settings             : BVOP1
Format settings, BVOP       : 1
Format settings, QPel       : No
Format settings, GMC        : No warppoints
Format settings, Matrix     : Default (MPEG)
Codec ID                    :
Codec ID/Hint               :
Duration                    : 1 h 27 min
Bit rate                    : 2 189 kb/s
Width                       : 720 pixels
Height                      : 400 pixels
Display aspect ratio        : 16:9
Frame rate                  : 25.000 FPS
Color space                 : YUV
Chroma subsampling          : 4:2:0
Bit depth                   : 8 bits
Scan type                   : Progressive
Compression mode            : Lossy
Bits/(Pixel*Frame)          : 0.304
Stream size                 : 1.33 GiB (92%)
Writing library             : 67

Audio
ID                          : 1
Format                      : AC-3
Format/Info                 : Audio Coding 3
Format settings, Endianness : Big
Codec ID                    : 2000
Duration                    : 1 h 27 min
Bit rate mode               : Constant
Bit rate                    : 192 kb/s
Channel(s)                  : 2 channels
Channel positions           : Front: L R
Sampling rate               : 48.0 kHz
Frame rate                  : 31.250 FPS (1536 SPF)
Bit depth                   : 16 bits
Compression mode            : Lossy
Stream size                 : 120 MiB (8%)
Alignment                   : Split accross interleaves
Interleave, duration        : 40  ms (1.00 video frame)
Interleave, preload duratio : 500  ms
Service kind                : Complete Main


Джерело:
Подяка за наданий запис п.krigg070


Золотий реліз (завантажене не впливає на рейтинг)
 Трекер:    Зареєстрований   

Завантажити / скачати фільм українською



відео для новачків



 Зареєстрований:   2017-10-18 17:00
 Розмір:   1.45 GB 
 Оцінка фільму:   6.9/10 (Голосів: 32)
   
бусинка13 
Новенький


З нами з: 20.10.17
Востаннє: 20.10.17
Повідомлень: 1

2017-10-20 18:32  
Панове, це як мінімум не порядно.
Терміново видаліть роздачу. Фільм безкоштовно буде доступним всім, але дещо згодом.
Звяжіться зі мною будь ласка з цього питання. [email protected]
Продюсер проекту, Марія Берлінська.

Ваш часовий пояс: GMT + 2 Години

Нова тема   Відповісти