Україна. Повернення своєї історії (2016)

Нові коментарі

Нова тема   Відповісти
Автор Повідомлення
Neo_Men 
Свій


З нами з: 21.11.15
Востаннє: 25.10.20
Повідомлень: 139

2017-10-17 21:03  
Україна. Повернення своєї історії (2016)

Україна. Повернення своєї історії (2016)


Жанр: документальний, історичний
Країна: Україна

Телеканал / кіностудія: 1+1
Режисер: Акім Галімов, Дарія Саричева

Сюжет:
Україна. Повернення своєї історії – документальний фільм-дослідження. Наша історія – лише набір вигаданих фактів та чужих героїв. Протягом століть існували таємні групи людей, які створювали для українців паралельну реальність. 400 років ними керував один центр. Архів репресивних органів ЦК Компартії України розсекретили всього торік. За справою одного етнографа почали відкриватися масштабні фальсифікації історії. Чому вбивали тих, хто збирав по селах народні обряди? Ким насправді була дружина Ярослава Мудрого, яку росіяни назвали своєю святою, та де вона похована? Звідки насправді був родом Ілля Муромець? Ми зібрали команду науковців, які вперше за 1000 років розкриють історичну аферу.


Тривалість: 01:32:34
Якість:

Відео:
кодек:
розмір кадру: 720 х 400
бітрейт: 1 489 кб/с

Аудіо:
мова: українська
переклад: оригінал
кодек: 2.0
бітрейт: 192 кб/с
Info
General
Complete name : Україна. Повернення своєї історії.avi
Format : AVI
Format/Info : Audio Video Interleave
File size : 1.09 GiB
Duration : 1 h 32 min
Overall bit rate : 1 692 kb/s

Video
ID : 0
Format : MPEG-4 Visual
Format profile : Advanced [email protected]
Format settings, BVOP : 2
Format settings, QPel : No
Format settings, GMC : No warppoints
Format settings, Matrix : Default (MPEG)
Codec ID :
Codec ID/Hint :
Duration : 1 h 32 min
Bit rate : 1 489 kb/s
Width : 720 pixels
Height : 400 pixels
Display aspect ratio : 16:9
Frame rate : 25.000 FPS
Color space : YUV
Chroma subsampling : 4:2:0
Bit depth : 8 bits
Scan type : Progressive
Compression mode : Lossy
Bits/(Pixel*Frame) : 0.207
Stream size : 986 MiB (88%)
Writing library : 64

Audio
ID : 1
Format : AC-3
Format/Info : Audio Coding 3
Format settings, Endianness : Big
Codec ID : 2000
Duration : 1 h 32 min
Bit rate mode : Constant
Bit rate : 192 kb/s
Channel(s) : 2 channels
Channel positions : Front: L R
Sampling rate : 48.0 kHz
Frame rate : 31.250 FPS (1536 SPF)
Bit depth : 16 bits
Compression mode : Lossy
Stream size : 127 MiB (11%)
Alignment : Aligned on interleaves
Interleave, duration : 32 ms (0.80 video frame)
Service kind : Complete Main
Скріншоти




Примітка : Всі три частини в одному фільмі

Джерело: youtube.com/user/1plus1channel/videos


Золотий реліз (завантажене не впливає на рейтинг)
 Трекер:    Зареєстрований   

Завантажити / скачати фільм українською



відео для новачків



 Зареєстрований:   2017-10-17 21:03
 Розмір:   1.09 GB 
 Оцінка фільму:   9.5/10 (Голосів: 21)
   
Ваш часовий пояс: GMT + 2 Години

Нова тема   Відповісти