Україна. Повернення своєї історії 2 (2017)

Нові коментарі

Нова тема   Відповісти
Автор Повідомлення
Neo_Men 
Свій


З нами з: 21.11.15
Востаннє: 21.10.20
Повідомлень: 139

2017-10-17 19:12  
Україна. Повернення своєї історії 2 (2017)

Україна. Повернення своєї історії 2 (2017)


Жанр: документальний, історичний
Країна: Україна

Телеканал / кіностудія: 1+1
Режисер: Акім Галімов, Дарія Саричева

Сюжет:
До 26-ї річниці незалежності 1+1 презентує нову частину документального проекту «Україна. Повернення своєї історії». Мечі, які зберігають таємницю походження українців - чи вдасться доньці репресованого археолога віднайти вкрадені святині? У фільмі Акіма Галімова команда найкращих істориків та археологів спробує відновити справжнє обличчя засновника династії – Ярослава Мудрого.


Тривалість: 01:48:05
Якість:

Відео:
кодек:
розмір кадру: 720 х 400
бітрейт: 1 547 кб/с

Аудіо:
мова: українська
переклад: оригінал
кодек: 2.0
бітрейт: 192 кб/с
Info
General
Complete name : Україна. Повернення своєї історії – 2.avi
Format : AVI
Format/Info : Audio Video Interleave
File size : 1.32 GiB
Duration : 1 h 48 min
Overall bit rate : 1 750 kb/s

Video
ID : 0
Format : MPEG-4 Visual
Format profile : Advanced [email protected]
Format settings, BVOP : 2
Format settings, QPel : No
Format settings, GMC : No warppoints
Format settings, Matrix : Default (H.263)
Codec ID :
Codec ID/Hint :
Duration : 1 h 48 min
Bit rate : 1 547 kb/s
Width : 720 pixels
Height : 400 pixels
Display aspect ratio : 16:9
Frame rate : 25.000 FPS
Color space : YUV
Chroma subsampling : 4:2:0
Bit depth : 8 bits
Scan type : Progressive
Compression mode : Lossy
Bits/(Pixel*Frame) : 0.215
Stream size : 1.17 GiB (88%)
Writing library : 64

Audio
ID : 1
Format : AC-3
Format/Info : Audio Coding 3
Format settings, Endianness : Big
Codec ID : 2000
Duration : 1 h 48 min
Bit rate mode : Constant
Bit rate : 192 kb/s
Channel(s) : 2 channels
Channel positions : Front: L R
Sampling rate : 48.0 kHz
Frame rate : 31.250 FPS (1536 SPF)
Bit depth : 16 bits
Compression mode : Lossy
Stream size : 148 MiB (11%)
Alignment : Aligned on interleaves
Interleave, duration : 32 ms (0.80 video frame)
Service kind : Complete Main
Скріншоти




Джерело: youtube.com/user/1plus1channel/videos


Золотий реліз (завантажене не впливає на рейтинг)
 Трекер:    Зареєстрований   

Завантажити / скачати фільм українською



відео для новачків



 Зареєстрований:   2017-10-17 19:12
 Розмір:   1.32 GB 
 Оцінка фільму:   9.4/10 (Голосів: 21)
   
jaral 
Забанено
Забанено


З нами з: 18.10.07
Востаннє: 21.01.20
Повідомлень: 977

2017-10-17 20:07  
Якщо це подібне до шоу "Код нації (2014)", то реліз з потенційною псевдонаукою має бути в рубриці "Телевізійні шоу та програми".
dabgu 
Новенький


З нами з: 09.02.09
Востаннє: 21.10.20
Повідомлень: 8

2017-10-17 22:54  
jaral
Якщо не дивився, то краще помовч.

jaral 
Забанено
Забанено


З нами з: 18.10.07
Востаннє: 21.01.20
Повідомлень: 977

2017-10-18 01:29  
dabgu підтверджує, що режисери Ґалімов і Сарічєва спромоглися створити, щось якісне й проукраїнське?
володимирко2 
Оцифрування книг Гуртом


З нами з: 28.02.10
Востаннє: 21.10.20
Повідомлень: 1250

2017-10-20 23:03  
Нещасні, для відтворення зовнішності Ярослава Мудрого шукали зображення його нащадків та їхні останки. Їм не вдавалося нічого путнього. А про Ярослава Осьмомисла та відтворення його обличчя Сергієм Горбенком ані слова. "Команда найкращих істориків та археологів" не знає цього. Фільм не є серйозним.
jaral 
Забанено
Забанено


З нами з: 18.10.07
Востаннє: 21.01.20
Повідомлень: 977

2017-10-21 02:11  
володимирко2 написано:
Фільм не є серйозним.
Тобто готовий продукт має бути в рубриці "Телевізійні шоу та програми"?
володимирко2 
Оцифрування книг Гуртом


З нами з: 28.02.10
Востаннє: 21.10.20
Повідомлень: 1250

2017-10-21 08:19  
jaral написано:
Тобто готовий продукт має бути в рубриці "Телевізійні шоу та програми"?

Його місце тут. Я маю на увазі, що автори цього проекту не зробили добросовісно свою роботу. Останки Ярослава Мудрого в США, але про це не говорилося і ніхто не збирався туди поїхати подивитися. До Москви дорога дешевше обходиться.

Форкуш 
VIP


З нами з: 03.02.10
Востаннє: 21.10.20
Повідомлень: 2860

2017-10-21 12:06  
Цікаві дослідження. Але, мене цікавить чи ці речі увійдуть в офіційну історіографію та підручники...
Ваш часовий пояс: GMT + 2 Години

Нова тема   Відповісти