Україна. Повернення своєї історії 2 (2017) 1080p

Нові коментарі

Нова тема   Відповісти
Автор Повідомлення
Anonymous 







2017-10-17 14:01  
Україна. Повернення своєї історії 2 (2017) 1080p

Україна. Повернення своєї історії 2 (2017) 1080p


Жанр: документальний, історичний
Країна: Україна

Телеканал / кіностудія: 1+1
Режисер: Акім Галімов, Дарія Саричева

Сюжет:
До 26-ї річниці незалежності 1+1 презентує нову частину документального проекту «Україна. Повернення своєї історії». Мечі, які зберігають таємницю походження українців - чи вдасться доньці репресованого археолога віднайти вкрадені святині? У фільмі Акіма Галімова команда найкращих істориків та археологів спробує відновити справжнє обличчя засновника династії – Ярослава Мудрого.


Тривалість: 01:48:05
Якість:

Відео:
кодек:
розмір кадру: 1920 х 1080
бітрейт: 2 398 кб/с

Аудіо:
мова: українська
переклад: оригінал
кодек: 2.0
бітрейт: 126 кб/с
Info
General
Unique ID : 194925066226570503773825186075510214239 (0x92A533C319A2137CBEDF1521BFB68E5F)
Complete name : Україна. Повернення своєї історії – 2.
Format :
Format version : Version 4 / Version 2
File size : 1.91 GiB
Duration : 1 h 48 min
Overall bit rate : 2 526 kb/s
Encoded date : UTC 2017-10-17 10:39:34
Writing application : v8.3.0 ('Over the Horizon') 64bit
Writing library : libebml v1.3.1 + v1.4.2

Video
ID : 1
Format : AVC
Format/Info : Advanced Video Codec
Format profile : [email protected]
Format settings, CABAC : Yes
Format settings, RefFrames : 3 frames
Codec ID : V_MPEG4/ISO/AVC
Duration : 1 h 48 min
Bit rate : 2 398 kb/s
Width : 1 920 pixels
Height : 1 080 pixels
Display aspect ratio : 16:9
Frame rate mode : Constant
Frame rate : 25.000 FPS
Color space : YUV
Chroma subsampling : 4:2:0
Bit depth : 8 bits
Scan type : Progressive
Bits/(Pixel*Frame) : 0.046
Stream size : 1.81 GiB (95%)
Default : Yes
Forced : No
Color range : Limited
Color primaries : BT.709
Transfer characteristics : BT.709
Matrix coefficients : BT.709

Audio
ID : 2
Format :
Format/Info : Advanced Audio Codec
Format profile : LC
Codec ID : A_AAC
Duration : 1 h 48 min
Bit rate : 126 kb/s
Channel(s) : 2 channels
Channel positions : Front: L R
Sampling rate : 44.1 kHz
Frame rate : 43.066 FPS (1024 SPF)
Compression mode : Lossy
Stream size : 97.1 MiB (5%)
Title : 1+1
Language : Ukrainian
Default : Yes
Forced : No
Скріншоти




Джерело: youtube.com/user/1plus1channel/videos


Золотий реліз (завантажене не впливає на рейтинг)
 Трекер:    Зареєстрований   

Завантажити / скачати фільм українською



відео для новачків



 Зареєстрований:   2017-10-17 14:01
 Розмір:   1.91 GB 
 Оцінка фільму:   10/10 (Голосів: 7)
   
lanagreg 
Частий відвідувач


З нами з: 23.10.12
Востаннє: 01.04.20
Повідомлень: 35

2017-10-17 18:08  
дякуємо!
andriy_nv 
VIP


З нами з: 27.06.08
Востаннє: 08.04.20
Повідомлень: 1013

2017-10-17 19:13  
або на каналі 1+1 на YouTube 
Ваш часовий пояс: GMT + 2 Години

Нова тема   Відповісти