Робінзон Крузо / Robinson Crusoe (1997) AVC 3xUkr/Eng | sub Eng

Нові коментарі

Нова тема   Відповісти
Автор Повідомлення
Arsenfpu 
Відео Гуртом - фільмокрай
Відео Гуртом - фільмокрай


З нами з: 30.04.09
Востаннє: 05.08.20
Повідомлень: 7115

2017-10-16 20:29  
Робінзон Крузо / Robinson Crusoe (1997) AVC 3xUkr/Eng | sub Eng

Робінзон Крузо / Robinson Crusoe (1997) AVC 3xUkr/Eng | sub Eng


Жанр: драма, пригоди
Країна: США



Кінокомпанія: Miramax, RHI Entertainment
Режисер: Род Харді, Джордж Міллер
Актори: Пірс Броснан, Вільям Такаку, Поллі Вокер, Ієн Харт, Джеймс Фрейн

Сюжет:
За романом «Життя та пригоди Робінзона Крузо» Деніеля Дефо. Відкривається фільм сценою дуелі на шпагах, через яку Робінзону Крузо і довелося стати моряком і вирушити на зустріч зі своєю долею.


Тривалість: 01:30:43
Якість: AVC
Відео:
кодек:
розмір кадру: 1 024x560
бітрейт: 2 499 кб/с

Аудіо # 1:
мова: українська
переклад: багатоголосий закадровий
кодек: 2.0
бітрейт: 192 кб/с

Аудіо # 2:
мова: українська
переклад: багатоголосий закадровий (з 5.1)
кодек: 2.0
бітрейт: 192 кб/с

Аудіо # 3:
мова: українська
переклад: багатоголосий закадровий
кодек: 2.0
бітрейт: 192 кб/с

примітка: в ідеалі добре було б мати усі доріжки в кращій якості

Аудіо # 4:
мова: англійська
переклад: оригінал
кодек: 2.0
бітрейт: 192 кб/с

Субтитри:
мова: англійська
тип: програмні (м'які)
формат: *.srt
Скріншоти














Про файл
General
Unique ID : 173093785635677068470277467169372062770 (0x8238A686CB89D20190F37C8E94594432)
Complete name : C:\Robinson Crusoe (1997) [3xUkr,Eng] AVC [Hurtom].
Format :
Format version : Version 4 / Version 2
File size : 2.07 GiB
Duration : 1 h 30 min
Overall bit rate : 3 260 kb/s
Movie name : Роінзон Крузо / Robinson Crusoe (1997)
Encoded date : UTC 2020-06-01 19:32:27
Writing application : v21.0.0 ('Tardigrades Will Inherit The Earth') 32-bit
Writing library : libebml v1.3.5 + v1.4.8
Cover : Yes
Attachments : cover.jpg

Video
ID : 1
Format : AVC
Format/Info : Advanced Video Codec
Format profile : [email protected]
Format settings, CABAC : Yes
Format settings, ReFrames : 4 frames
Codec ID : V_MPEG4/ISO/AVC
Duration : 1 h 30 min
Bit rate : 2 499 kb/s
Width : 1 024 pixels
Height : 560 pixels
Display aspect ratio : 1.85:1
Frame rate mode : Constant
Frame rate : 23.976 (24000/1001) FPS
Color space : YUV
Chroma subsampling : 4:2:0
Bit depth : 8 bits
Scan type : Progressive
Bits/(Pixel*Frame) : 0.182
Stream size : 1.58 GiB (77%)
Writing library : core 157 r2935 545de2f
Encoding settings : cabac=1 / ref=3 / deblock=1:-1:-1 / analyse=0x3:0x113 / me=hex / subme=7 / psy=1 / psy_rd=1.00:0.15 / mixed_ref=1 / me_range=16 / chroma_me=1 / trellis=1 / 8x8dct=1 / cqm=0 / deadzone=21,11 / fast_pskip=1 / chroma_qp_offset=-3 / threads=12 / lookahead_threads=2 / sliced_threads=0 / nr=0 / decimate=1 / interlaced=0 / bluray_compat=0 / constrained_intra=0 / bframes=3 / b_pyramid=2 / b_adapt=1 / b_bias=0 / direct=1 / weightb=1 / open_gop=0 / weightp=2 / keyint=240 / keyint_min=23 / scenecut=40 / intra_refresh=0 / rc_lookahead=40 / rc=2pass / mbtree=1 / bitrate=2499 / ratetol=1.0 / qcomp=0.60 / qpmin=0 / qpmax=69 / qpstep=4 / cplxblur=20.0 / qblur=0.5 / ip_ratio=1.40 / aq=1:1.00
Default : Yes
Forced : No

Audio #1
ID : 2
Format : AC-3
Format/Info : Audio Coding 3
Mode extension : CM (complete main)
Format settings, Endianness : Big
Codec ID : A_AC3
Duration : 1 h 26 min
Bit rate mode : Constant
Bit rate : 192 kb/s
Channel(s) : 2 channels
Channel positions : Front: L R
Sampling rate : 48.0 kHz
Frame rate : 31.250 FPS (1536 spf)
Compression mode : Lossy
Stream size : 119 MiB (6%)
Title : К1
Language : Ukrainian
Default : Yes
Forced : Yes

Audio #2
ID : 3
Format : AC-3
Format/Info : Audio Coding 3
Mode extension : CM (complete main)
Format settings, Endianness : Big
Codec ID : A_AC3
Duration : 1 h 30 min
Bit rate mode : Constant
Bit rate : 192 kb/s
Channel(s) : 2 channels
Channel positions : Front: L R
Sampling rate : 48.0 kHz
Frame rate : 31.250 FPS (1536 spf)
Compression mode : Lossy
Stream size : 125 MiB (6%)
Title : ICTV
Language : Ukrainian
Default : No
Forced : No

Audio #3
ID : 4
Format : AC-3
Format/Info : Audio Coding 3
Mode extension : CM (complete main)
Format settings, Endianness : Big
Codec ID : A_AC3
Duration : 1 h 30 min
Bit rate mode : Constant
Bit rate : 192 kb/s
Channel(s) : 2 channels
Channel positions : Front: L R
Sampling rate : 48.0 kHz
Frame rate : 31.250 FPS (1536 spf)
Compression mode : Lossy
Stream size : 125 MiB (6%)
Title : 2+2
Language : Ukrainian
Default : No
Forced : No

Audio #4
ID : 5
Format : AC-3
Format/Info : Audio Coding 3
Mode extension : CM (complete main)
Format settings, Endianness : Big
Codec ID : A_AC3
Duration : 1 h 30 min
Bit rate mode : Constant
Bit rate : 192 kb/s
Channel(s) : 2 channels
Channel positions : Front: L R
Sampling rate : 48.0 kHz
Frame rate : 31.250 FPS (1536 spf)
Compression mode : Lossy
Stream size : 125 MiB (6%)
Language : English
Default : No
Forced : No

Text
ID : 6
Format : UTF-8
Codec ID : S_TEXT/UTF8
Codec ID/Info : UTF-8 Plain Text
Duration : 1 h 26 min
Bit rate : 37 b/s
Count of elements : 891
Stream size : 23.7 KiB (0%)
Language : English
Default : Yes
Forced : No
Джерело:
За доріжку від ICTV дякую п. imonko, karvai0
За запис з 2+2 дякую пану Bohdan237
За запис з К1 дякую пану РОМЕО
За постер подяка t0mas
Особиста оцінка: гарний фільм


Срібний реліз (на рейтинг впливає 50% завантаженого)
 Трекер:    Зареєстрований   

Завантажити / скачати фільм українською



відео для новачків



 Зареєстрований:   2020-06-01 22:52
 Розмір:   2.07 GB 
 Оцінка фільму:   7/10 (Голосів: 36)
   
Інші релізи
-_-B_E_N_D_E_R-_- 
Забанено
Забанено


З нами з: 09.01.14
Востаннє: 22.05.18
Повідомлень: 896

2017-10-16 21:39  
Ух, який мохнатий).
volodymyr_sav 
VIP


З нами з: 07.10.13
Востаннє: 02.08.20
Повідомлень: 1755

2017-10-19 09:54  
Дивився якось по ТБ, кіно цікаве. Пірс впорався і екшену з масовкою трохи додали. Рекомендую
waldi-hurtom 
VIP


З нами з: 07.10.12
Востаннє: 04.08.20
Повідомлень: 1161

2017-10-22 21:48  
Це не Робінзон Крузо. І навіть не Пірс Броснан. Дефо і сліду не залишилося, натомість вбогі кліше-відсебеньки, перенесені на триста років у минуле. 5 з 10.
sergioman 
Новенький


З нами з: 26.02.14
Востаннє: 03.08.20
Повідомлень: 13

2018-01-09 01:02  
переклад ніякий,два переклади накладені в один
Arsenfpu 
Відео Гуртом - фільмокрай
Відео Гуртом - фільмокрай


З нами з: 30.04.09
Востаннє: 05.08.20
Повідомлень: 7115

2018-08-22 23:17  
sergioman
Пане, врешті-решт, змініть програму для перегляду відео, а то скрізь повторюєте одне й те ж!

І-р 
Свій


З нами з: 21.07.16
Востаннє: 04.08.20
Повідомлень: 99

2020-03-29 20:31  
-_-B_E_N_D_E_R-_- написано:
Ух, який мохнатий).

Це не означає, що тут гей-пропаганда.

Arsenfpu 
Відео Гуртом - фільмокрай
Відео Гуртом - фільмокрай


З нами з: 30.04.09
Востаннє: 05.08.20
Повідомлень: 7115

2020-06-01 22:53  
Реліз оновлено!
Відео змінено із на AVC та додано доріжку К1

Ваш часовий пояс: GMT + 2 Години

Нова тема   Відповісти