Брати Блюзу - Неділя, 19.25 (магнітоальбом) (1996) [, TapeRip] | Jazz-Rock

Нові коментарі

Нова тема   Відповісти
Автор Повідомлення
Gienek_Lwow 
VIP


З нами з: 28.09.10
Востаннє: 12.02.20
Повідомлень: 623

2017-10-16 14:18  
Брати Блюзу - Неділя, 19.25 (магнітоальбом) (1996) [, TapeRip] | Jazz-Rock

Брати Блюзу - Неділя, 19.25 (магнітоальбом) (1996) [, TapeRip] | Jazz-Rock


Стиль: Jazz-Rock, Ethno-Folk, Jazz-Fusion
Країна, місто: Україна, Калуш Івано-Франківська обл.
Видавець: МО Гарба - 042
Виконавці:
Мирослав Левицький — клавішні/композитор/продюсер.
Олег Левицький — саксофон/вокал (2);
Андрій Вінцерський — барабани/перкусія;
Андрій Мельник — бас-гітара;
Андрій Валага — скрипка;
Сашко Джуган — скрипка/вокал;
Сергій Тафтай — соло-гітара;
Олександр Мельник — віолончель
Пісні:
    01. Автентичне життя
    02. Ой-я, або музика для кіно
    03. Pastorale
    04. Interludia
    05. Jast a moment (частина 1)
    06. Спогад
    07. Божевільний дощ
    08. Неділя, 19.25
    09. Небо істини

Тривалість: 00:49:03
Мова: українська (1), без слів (2-9)
Аудіо-кодек:
Бітрейт: 3112 кб/с
Джерело: власний ріп з ориґінальної касети
Додаткова інформація:
Плейлист .cue вбудований у файл.


Срібний реліз (на рейтинг впливає 50% завантаженого)
 Трекер:    Зареєстрований   

Завантажити / скачати українську музику



відео для новачків



 Зареєстрований:   2017-10-16 14:18
 Розмір:   1.07 GB 
 Оцінка музики:   10/10 (Голосів: 8)
   
Sloneniatko 
Частий відвідувач


З нами з: 06.10.09
Востаннє: 21.02.20
Повідомлень: 45

2017-10-16 15:18  
Вау!!!
Gienek_Lwow 
VIP


З нами з: 28.09.10
Востаннє: 12.02.20
Повідомлень: 623

2017-10-16 16:29  
Sloneniatko написано:
Вау!!!


Український "джаз-роковий пінк-флойд", місцями дуже нагадує британську рок-групу... Happy

ser.lisak 
Свій


З нами з: 04.04.13
Востаннє: 15.12.19
Повідомлень: 79

2018-11-24 23:57  
А часом немає потрекової розбивки цього магнітоальбому?

Додано через 2 хвилини 36 секунд:

cue вбудований у файл але AIMP бачить лише один файл.

Додано через 2 хвилини 2 секунди:

Викладіть CUE окремо будь ласочка,

ser.lisak 
Свій


З нами з: 04.04.13
Востаннє: 15.12.19
Повідомлень: 79

2018-11-26 19:31  
Я трішечки полегшив Ваш за допомогою EZ CD Audio Converter .Новий(легший) по треково не розбивається. Підкажіть що робити?
Gienek_Lwow 
VIP


З нами з: 28.09.10
Востаннє: 12.02.20
Повідомлень: 623

2019-10-04 22:09  
ser.lisak написано:
Підкажіть що робити?
cue
REM GENRE Jazz Rock
REM DATE 1996
REM COMMENT collection and rip by Gienek_lwow / MC Гарба #42
PERFORMER "Брати Блюзу"
TITLE "Неділя, 19.25"
FILE "Брати Блюзу - Неділя, 19.25.wav" WAVE
TRACK 01 AUDIO
TITLE "Автентичне життя"
INDEX 01 00:00:00
TRACK 02 AUDIO
TITLE "Ой-я, або музика для кіно"
INDEX 01 07:54:73
TRACK 03 AUDIO
TITLE "Pastorale"
INDEX 01 16:58:10
TRACK 04 AUDIO
TITLE "Interludia"
INDEX 01 21:01:53
TRACK 05 AUDIO
TITLE "Jast a moment (частина 1)"
INDEX 01 26:43:37
TRACK 06 AUDIO
TITLE "Спогад"
INDEX 01 30:04:56
TRACK 07 AUDIO
TITLE "Божевільний дощ"
INDEX 01 35:12:23
TRACK 08 AUDIO
TITLE "Неділя, 19.25"
INDEX 01 41:42:21
TRACK 09 AUDIO
TITLE "Небо істини"
INDEX 01 46:08:10

blacknick 
Новенький


З нами з: 22.08.10
Востаннє: 27.01.20
Повідомлень: 1

2019-11-05 18:07  
супер. давно шукав
Ваш часовий пояс: GMT + 2 Години

Нова тема   Відповісти