Пірати Карибського моря: Помста Салазара / Pirates of the Caribbean: Dead Men Tell No Tales (2017)

Нові коментарі

Нова тема   Відповісти
Автор Повідомлення
Anonymous 







2017-10-15 10:56  
Пірати Карибського моря: Помста Салазара / Pirates of the Caribbean: Dead Men Tell No Tales (2017)

Пірати Карибського моря: Помста Салазара / Pirates of the Caribbean: Dead Men Tell No Tales (2017)
Усі українські постери:

















Жанр: фентезі, екшн, комедія, пригодницький
Країна: США



Кінокомпанія: Walt Disney Pictures, Jerry Bruckheimer Films, Infinitum Nihil
Режисер: Хоакім Роннінґ / Joachim Rønning, Еспен Сандберґ / Espen Sandberg
Актори: Джонні Деп / Johnny Depp, Хав’єр Бардем / Javier Bardem, Джеффрі Раш / Geoffrey Rush, Брентон Туейтс / Brenton Thwaites, Кая Скоделаріо / Kaya Scodelario, Орландо Блум / Orlando Bloom, Кіра Найтлі / Keira Knightley, Стівен Ґрем / Stephen Graham, Девід Венем / David Wenham, Кевін МакНеллі / Kevin McNally, Пол МакКартні / Paul McCartney та інші

Сюжет:
Щасливчик капітан Джек Горобець переживає важкі часи, адже удача його покинула. Колись дуже давно в молодості Джек Горобець знищив лютого іспанського борця з піратами капітана Салазара. Цей страшний капітан утік разом зі своєю командою з Диявольського трикутника, щоб знищити всіх піратів, особливо Горобця. Єдиний шанс Джека вижити – знайти легендарний тризуб Посейдона. Цей неймовірно сильний артефакт дозволить своєму господареві бути володарем усіх морів. І допоможуть у цьому капітану Джеку Горобцю його нові друзі – Генрі й Каріна Сміт. Неймовірні пригоди Джека Горобця тривають!
Офіційні українські трейлери:






Рейтинг MPAA: PG-13 - дітям до 13 років перегляд не бажаний
Вікова категорія: 12+
Тривалість: 02:09:06
Якість: [з Blu-ray]
Відео:
кодек:
розмір кадру: 720 х 304
бітрейт: 1958 кб/с

Аудіо # 2:
мова: українська
переклад: професійний дубльований
кодек: 5.1
бітрейт: 448 кб/с

Субтитри # 1:
мова: українська (форсовані - на неозвучені написи)
тип: програмні (м'які)
формат: *.srt
Info
Код:
General
Complete name               : Pirates of the Caribbean. Dead Men Tell No Tales (2017) [Ukr] [Hurtom].avi
Format                      : AVI
Format/Info                 : Audio Video Interleave
Format profile              : OpenDML
File size                   : 2.18 GiB
Duration                    : 2 h 9 min
Overall bit rate            : 2 418 kb/s
Movie name                  : Пірати Карибського моря: Помста Салазара / Pirates of the Caribbean: Dead Men Tell No Tales (2017)
Genre                       : фентезі, екшн, комедія, пригодницький
Writing application         : VirtualDubModUkr 1.5.10.2 (build 2542/release)
Writing library             : VirtualDubMod build 2542/release
Comment                     : https://toloka.to/t84588

Video
ID                          : 0
Format                      : MPEG-4 Visual
Format profile              : Advanced [email protected]
Format settings             : BVOP1 / Custom Matrix
Format settings, BVOP       : 1
Format settings, QPel       : No
Format settings, GMC        : No warppoints
Format settings, Matrix     : Custom
Codec ID                    :
Codec ID/Hint               :
Duration                    : 2 h 9 min
Bit rate                    : 1 958 kb/s
Width                       : 720 pixels
Height                      : 304 pixels
Display aspect ratio        : 2.35:1
Frame rate                  : 23.976 (24000/1001) FPS
Color space                 : YUV
Chroma subsampling          : 4:2:0
Bit depth                   : 8 bits
Scan type                   : Progressive
Compression mode            : Lossy
Bits/(Pixel*Frame)          : 0.373
Stream size                 : 1.77 GiB (81%)
Writing library             : 65

Audio
ID                          : 1
Format                      : AC-3
Format/Info                 : Audio Coding 3
Format settings, Endianness : Big
Codec ID                    : 2000
Duration                    : 2 h 9 min
Bit rate mode               : Constant
Bit rate                    : 448 kb/s
Channel(s)                  : 6 channels
Channel positions           : Front: L C R, Side: L R, LFE
Sampling rate               : 48.0 kHz
Frame rate                  : 31.250 FPS (1536 SPF)
Bit depth                   : 16 bits
Compression mode            : Lossy
Stream size                 : 414 MiB (19%)
Alignment                   : Split accross interleaves
Interleave, duration        : 42  ms (1.00 video frame)
Interleave, preload duratio : 500  ms
Title                       : Ukr Dub [Hurtom]
Service kind                : Complete Main


Джерело: &
Подяка Hanway'ю'у за створення української доріжки 5.1



 Трекер:    Зареєстрований   

Завантажити / скачати фільм українською



відео для новачків



 Зареєстрований:   2017-10-15 11:27
 Розмір:   2.18 GB 
 Оцінка фільму:   6.7/10 (Голосів: 37)
   
Ваш часовий пояс: GMT + 2 Години

Нова тема   Відповісти