Король Джуліен / Король Джуліан (Сезони 1-4) / All Hail King Julien (Seasons 1-4) (2014-2016) 1080p Ukr/Eng | sub Eng

Нові коментарі

Нова тема   Відповісти
Автор Повідомлення
Anonymous 







2017-10-15 11:14  
Король Джуліен / Король Джуліан (Сезони 1-4) / All Hail King Julien (Seasons 1-4) (2014-2016) 1080p Ukr/Eng | sub Eng

Король Джуліен / Король Джуліан (Сезони 1-4) / All Hail King Julien (Seasons 1-4) (2014-2016) 1080p Ukr/Eng | sub Eng


Жанр: дитячий, комедія, пригодницький
Країна: США



Кінокомпанія: DreamWorks Animation
Режисер: Мітч Вотсон, Брет Хааланд
Сюжет:
Події розвиваються на барвистому, мальовничому і незайманому острові з назвою Мадагаскар. Король Джуліан править своїми підлеглими мудро і справедливо. Хоча, насправді, це не про нього, адже цей лемур не любить нудьгувати, і не дозволяє цього робити нікому з королівства. Можливо, іноді його егоїзм і ексцентричність зашкалюють, але він завжди керується своїм знаменитим висловом «Лови момент!». Джуліан старанно намагається забезпечити своїм підлеглим цікаве, екстримальне, веселе, а іноді навіть небезпечне проведення часу. А все для того, щоб вони навчилися проживати кожен свій день, немов останній у своєму житті. Серіал розповідає про ті безтурботні часи, коли на острові ще не з'явилася відома четвірка з Нью-Йорка.

Тривалість: 1 серія: ~23 хв. (цілком серій: 52)
Перелік серій
Сезон 1
01. Коронуй мене / King Me
02. Результати опитування / Poll Position
03. Входить Фаналока / Enter the Fanaloka
04. Голова є пуста / Empty is the Head
05. Повернення дядька короля / Return of the Uncle King
06. Їж, молись, штовхайся / Eat Pray Shove
07. Він засліпив мене наукою / He Blinded Me with Science
08. Слава Морту / Viva Mort
09. Ну дуже велика брехня / The Really Really Big Lie
10. Ще одна чашечка / One More Cup
Сезон 2
01. Мій справедливий Фоса / My Fair Foosa
02. Підгузковий стиль / Diapers Are the New Black
03. Крімсон і Кловер / Crimson and Clover
04. Милий для очей ананас / Pineapple of My Eye
05. Монополія: Гра / Gimme Gimme Gimme: The Game
06. Королівський дублер / Body Double
07. Вибори / Election
08. Тато Джуліен / Daddy Julien
09. Оце так Роб / That's Sooo Rob
10. Чоловік у залізній дупі / The Man in the Iron Booty
11. Планета мавп / Monkey Planet
12. Правдивий братман / True Bromance
13. Найкорольніший король / The King Who Would Be King
14. Ти Френк? Я король Джуліен / Are You There, Frank? It's Me, King Julien
15. Привид клубу Спека / The Phantom of Club Moist
16. Королю Джуліену кінець? / King Juli-END?
Сезон 3
01. О мій капітане, частина 1 / O Captain My Captain Pt. 1
02. О мій капітане, частина 2 / O Captain My Captain Pt. 2
03. Подивіться, як я танцюю / Dance, Dance, Resolution
04. Ох, брате, де ж ти був? / Oh Brother Where Aren't Thou?
05. Любовна рукавиця / Love Gauntlet
06. Ігри в Джунглях / Jungle Games
07. Близькі зіткнення Мортоподібних / Close Encounters of the Mort Kind
08. Війна метеликів / The Butterfly War
09. Лемурна нація швидкої їжі / Fast Food Lemur Nation
10. Геть з моєї землі / Get Off My Lawn
11. Помста колишньої / Revenge of the Prom
12. Око за око / Eye of the Clover
13. Вигнані за кордон / Run for the Border
Сезон 4
01. Шоу "Хай живе король Джуліен" / The All Hail King Julien Show
02. Кловер у власному світі / The Neverending Clover
03. Хто малює? / Who Arted?
04. Те дурне відчуття / That Sinking Feeling
05. Джунглевий півень / The Jungle Rooster
06. Книга манер / The Good Book
07. Король і Місіс Морт / The King and Mrs. Mort
08. Король-суперзірка / King Julien Superstar!
09. Панчуринський кандидат / The Panchurian Candidate
10. Гнів Мортикуса Кана / The Wrath of Morticus Khan
11. Кото, високий і простий / Koto, Plain and Tall
12. Я — Моріс / I, Maurice
13. Розкоронуйте мене / Un-King Me
Якість:
Відео:
кодек:
розмір кадру: 1920 х 1080
бітрейт: 4800-6700 кб/с

Аудіо # 1:
мова: українська
переклад: багатоголосий закадровий (QTV)
кодек: 2.0
бітрейт: 192 кб/с

Аудіо # 2:
мова: англійська
переклад: оригінал
кодек: 5.1
бітрейт: 640 кб/с (сезони 1, 2), 384 кб/с (сезони 3, 4)

Джерело озвучення:


Субтитри (форсовані, на місце без перекладу у другій серії четвертого сезону):
мова: українська
тип: програмні (м'які)
формат: *.srt

Субтитри:
мова: англійська
тип: програмні (м'які)
формат: *.srt
Info
General
Unique ID : 248281814532102602237417598535805472204 (0xBAC9568F6329D6B992130CD9233C8DCC)
Complete name : E:\Support\All Hail King Julien [, 1080p, Ukr, Eng]\Season 4\All Hail King Julien. S04E02. The Neverending Clover.
Format :
Format version : Version 4 / Version 2
File size : 1.14 GiB
Duration : 23 min 33 s
Overall bit rate : 6 915 kb/s
Encoded date : UTC 2017-10-10 05:29:22
Writing application : v16.0.0 ('Protest') 64-bit
Writing library : libebml v1.3.5 + v1.4.8

Video
ID : 1
Format : AVC
Format/Info : Advanced Video Codec
Format profile : [email protected]
Format settings, CABAC : Yes
Format settings, ReFrames : 4 frames
Codec ID : V_MPEG4/ISO/AVC
Duration : 23 min 33 s
Bit rate : 6 338 kb/s
Width : 1 920 pixels
Height : 1 080 pixels
Display aspect ratio : 16:9
Frame rate mode : Constant
Frame rate : 23.976 (24000/1001) FPS
Color space : YUV
Chroma subsampling : 4:2:0
Bit depth : 8 bits
Scan type : Progressive
Bits/(Pixel*Frame) : 0.127
Stream size : 1.04 GiB (92%)
Writing library : core 148 r2638 7599210
Encoding settings : cabac=1 / ref=4 / deblock=1:-3:-3 / analyse=0x3:0x133 / me=umh / subme=11 / psy=1 / psy_rd=0.40:0.00 / mixed_ref=1 / me_range=48 / chroma_me=1 / trellis=2 / 8x8dct=1 / cqm=0 / deadzone=21,11 / fast_pskip=0 / chroma_qp_offset=-2 / threads=24 / lookahead_threads=6 / sliced_threads=0 / nr=0 / decimate=0 / interlaced=0 / bluray_compat=0 / constrained_intra=0 / bframes=16 / b_pyramid=2 / b_adapt=2 / b_bias=0 / direct=3 / weightb=1 / open_gop=0 / weightp=2 / keyint=240 / keyint_min=23 / scenecut=40 / intra_refresh=0 / rc=crf / mbtree=0 / crf=16.0 / qcomp=0.60 / qpmin=0 / qpmax=69 / qpstep=4 / ip_ratio=1.30 / pb_ratio=1.20 / aq=3:0.70
Default : Yes
Forced : No

Audio #1
ID : 2
Format : AC-3
Format/Info : Audio Coding 3
Format settings, Endianness : Big
Codec ID : A_AC3
Duration : 23 min 33 s
Bit rate mode : Constant
Bit rate : 192 kb/s
Channel(s) : 2 channels
Channel positions : Front: L R
Sampling rate : 48.0 kHz
Frame rate : 31.250 FPS (1536 spf)
Bit depth : 16 bits
Compression mode : Lossy
Stream size : 32.4 MiB (3%)
Title : QTV
Language : Ukrainian
Service kind : Complete Main
Default : Yes
Forced : No

Audio #2
ID : 3
Format : AC-3
Format/Info : Audio Coding 3
Format settings, Endianness : Big
Codec ID : A_AC3
Duration : 23 min 33 s
Bit rate mode : Constant
Bit rate : 384 kb/s
Channel(s) : 6 channels
Channel positions : Front: L C R, Side: L R, LFE
Sampling rate : 48.0 kHz
Frame rate : 31.250 FPS (1536 spf)
Bit depth : 16 bits
Compression mode : Lossy
Stream size : 64.7 MiB (6%)
Language : English
Service kind : Complete Main
Default : No
Forced : No

Text #1
ID : 4
Format : UTF-8
Codec ID : S_TEXT/UTF8
Codec ID/Info : UTF-8 Plain Text
Duration : 30 s 197 ms
Bit rate : 173 b/s
Count of elements : 10
Stream size : 654 Bytes (0%)
Language : Ukrainian
Default : Yes
Forced : Yes

Text #2
ID : 5
Format : UTF-8
Codec ID : S_TEXT/UTF8
Codec ID/Info : UTF-8 Plain Text
Duration : 22 min 56 s
Bit rate : 102 b/s
Count of elements : 465
Stream size : 17.2 KiB (0%)
Language : English
Default : No
Forced : No
Скріншоти
Джерело: &
Особиста оцінка: 8 - мені сподобалося





Золотий реліз (завантажене не впливає на рейтинг)
 Трекер:    Зареєстрований   

Завантажити / скачати мультфільм українською



відео для новачків



 Зареєстрований:   2017-10-15 11:14
 Розмір:   55.98 GB 
 Оцінка мультсеріалу:   4.3/10 (Голосів: 16)
   
0mage0 
VIP


З нами з: 06.10.15
Востаннє: 11.04.21
Повідомлень: 799

2018-08-26 20:30  
Неймовірний серіал, гідне доповнення "Пінгвінів з Мадагаскару". А 5-й сезон буде?
Anonymous 







2018-08-26 20:32  
0mage0 написано:
А 5-й сезон буде?

Невідомо.

Ваш часовий пояс: GMT + 2 Години

Нова тема   Відповісти