Постріл в безодню / Shot Caller (2017)

Нові коментарі

Нова тема   Відповісти
Автор Повідомлення
Anonymous 







2017-10-14 17:54  
Постріл в безодню / Shot Caller (2017)

Постріл в безодню / Shot Caller (2017)


Жанр: трилер, драма, кримінал
Країна: США



Кінокомпанія: Bold Films, Participant Media
Режисер: Рік Роман Во / Ric Roman Waugh
Актори: Ніколай Костер-Вальдау / Nikolaj Coster-Waldau, Джон Бернтал / Jon Bernthal, Лейк Белл / Lake Bell, Джессі Шрем / Jessy Schram, Бенджамін Бретт / Benjamin Bratt, Джеффрі Донован / Jeffrey Donovan, Еморі Коен / Emory Cohen, Майкл Лендіс / Майкл Лендіс, Голт МакКеллані / Holt McCallany, Омарі Хардвік / Omari Hardwick, Хуан Пабло Раба / Juan Pablo Raba та інші.

Сюжет:
Якоб Харлон був успішним бізнесменом, поки в аварії з його вини випадково не загинула людина. Він повинен відсидіти термін у в'язниці, де життя зовсім не таке, як на волі. Там чоловік вступає в банду. Поступово він стає частиною цього нового дому, стає таким же, як і всі, втрачаючи свій колишній вигляд і контакти із зовнішнім світом (навіть з дружиною і з сином). Після звільнення Якоб повинен провернути одну дуже небезпечну справу. Безжальний процес виконання своїх обов'язків також стає його шляхом до жертвоприношення, відплати й самовизначення.
Офіційний український трейлер:


Рейтинг MPAA: R - особам до 17 років обов'язкова присутність батьків або дорослого опікуна
Вікова категорія: 16+

Тривалість: 02:00:41
Якість:
Відео:
кодек:
розмір кадру: 720х304
бітрейт: 2131 кб/с

Аудіо # 1:
мова: українська
переклад: багатоголосий закадровий (псевдодубляж)
кодек: 2.0 [стерео]
бітрейт: 192 кб/с
Info
Код:
General
Complete name               : Shot Caller (2017) [Ukr] [Hurtom].avi
Format                      : AVI
Format/Info                 : Audio Video Interleave
File size                   : 1.97 GiB
Duration                    : 2 h 0 min
Overall bit rate            : 2 332 kb/s
Movie name                  : Постріл в безодню / Shot Caller (2017) [Ukr] [Hurtom]
Genre                       : трилер, драма, кримінал
Writing application         : VirtualDubModUkr 1.5.10.2 (build 2542/release)
Writing library             : VirtualDubMod build 2542/release
Comment                     : https://toloka.to/t84579

Video
ID                          : 0
Format                      : MPEG-4 Visual
Format profile              : Advanced [email protected]
Format settings             : BVOP2 / Custom Matrix
Format settings, BVOP       : 2
Format settings, QPel       : No
Format settings, GMC        : No warppoints
Format settings, Matrix     : Custom
Codec ID                    :
Codec ID/Hint               :
Duration                    : 2 h 0 min
Bit rate                    : 2 131 kb/s
Width                       : 720 pixels
Height                      : 304 pixels
Display aspect ratio        : 2.35:1
Frame rate                  : 23.976 (24000/1001) FPS
Color space                 : YUV
Chroma subsampling          : 4:2:0
Bit depth                   : 8 bits
Scan type                   : Progressive
Compression mode            : Lossy
Bits/(Pixel*Frame)          : 0.406
Stream size                 : 1.80 GiB (91%)
Writing library             : 73

Audio
ID                          : 1
Format                      : AC-3
Format/Info                 : Audio Coding 3
Format settings, Endianness : Big
Codec ID                    : 2000
Duration                    : 2 h 0 min
Bit rate mode               : Constant
Bit rate                    : 192 kb/s
Channel(s)                  : 2 channels
Channel positions           : Front: L R
Sampling rate               : 48.0 kHz
Frame rate                  : 31.250 FPS (1536 SPF)
Bit depth                   : 16 bits
Compression mode            : Lossy
Stream size                 : 166 MiB (8%)
Alignment                   : Split accross interleaves
Interleave, duration        : 42  ms (1.00 video frame)
Interleave, preload duratio : 500  ms
Title                       : Ukr MVO [Megogo] stereo
Service kind                : Complete Main


Джерело: &
Подяка Соломону Кeйн та Sando7 за доріжку та Electroz за її синхронізацію.


 Трекер:    Зареєстрований   

Завантажити / скачати фільм українською



відео для новачків



 Зареєстрований:   2017-10-14 18:46
 Розмір:   1.97 GB 
 Оцінка фільму:   8.2/10 (Голосів: 68)
   
Інші релізи
Ergo Proxy 
Частий відвідувач


З нами з: 22.05.12
Востаннє: 10.12.17
Повідомлень: 39

2017-10-14 22:45  
як фільм?)
Anonymous 







2017-10-14 22:49  
Ergo Proxy, додав в опис трейлер.
lotus9905 
Свій


З нами з: 10.10.08
Востаннє: 11.12.17
Повідомлень: 111

2017-10-15 01:07  
чудовий фільм.моя оцінка для даного фільму 10.це не кримінальний екшен,а психологічний екшен.Займе місце у багатьох колекціях любителів жанру.
chuknagumda 
Поважний учасник


З нами з: 29.12.08
Востаннє: 10.12.17
Повідомлень: 179

2017-10-15 11:50  
накінець, дочекався, люблю романтику... кримінальну, не нашу
Ванько 
Поважний учасник


З нами з: 27.08.09
Востаннє: 11.12.17
Повідомлень: 171

2017-10-16 08:16  
В описі Джессі Шрэм.

А фільм чудовий. Актори підібрані ідеально, як на мене.

patriot__85 
VIP


З нами з: 22.07.16
Востаннє: 11.12.17
Повідомлень: 255

2017-11-04 19:05  
Не розумію як цей фільм можна коментувати. Счастье привалило, ось де я себе знайшов, переступивши через себе (насравши на себе). Ось ким мені судилося бути. Дякую долі за те, що допоміг мені себе реалізувати. Актори підібрані ідеально. А може вже досить фігню возвеличувати? Якась нездорова цікавість криміналом і гадаю не до кінця усвідомлений вибір. Нафіг все! Нафіг боротьба і захист того, що робить її людиною. Гайда всі у тюрму! Лише там є повага і життя.

Додано через 20 хвилин 32 секунди:

Досить захоплюватися кримінальною тематикою, немає там нічого романтичного.

alexvvv 
Новенький


З нами з: 11.02.11
Востаннє: 10.12.17
Повідомлень: 4

2017-11-04 21:30  
фільм ні про що , дійсно постріл в молоко.
[email protected] 
Новенький


З нами з: 01.04.15
Востаннє: 11.12.17
Повідомлень: 5

2017-11-06 13:52  
Давно не бачив настільки якісний фільм!Все,що знімає ГОЛЛІВУД в 99% лайно!
мамбо 
Поважний учасник


З нами з: 23.12.11
Востаннє: 04.12.17
Повідомлень: 219

2017-11-07 20:38  
Крутий фільм
Yaroslav_Rivne 
Новенький


З нами з: 25.01.16
Востаннє: 10.12.17
Повідомлень: 1

2017-11-07 22:22  
Усім привіт.
Фільм реально настільки хороший, що змусив мене вперше написати відгук : ).
Переглянув фільм на одному подиху.
Фільм дійсно в більшій мірі - психологічний.
Для мене це показ того, що хороші наміри ведуть до пекла.
Головний герой протягом усього фільму робить усі "правильні" кроки.
Але в кінці-кінців це заводить його до зовсім іншого результату, ніж його очікування.
Безвихідь. Він не міг нічого робити по-іншому, бо мав внутрішні переконання, яких дотримувався.
Одним словом - рекомендую усім до перегляду. Але не під пиво у компанії, і без очікування екшну.

patriot__85 
VIP


З нами з: 22.07.16
Востаннє: 11.12.17
Повідомлень: 255

2017-11-08 20:48  
А чому ніхто не каже що головний герой слабохарактерний,
що він легко погоджується на вбивство, щоб догодити (сподобатись) пахану.
Respect, уважуха!

Ваш часовий пояс: GMT + 2 Години

Нова тема   Відповісти