Молодий Шелдон (Сезон 1, Серія 1) / Young Sheldon (Season 1, Episode 1) (2017 - ) 720р Eng | sub Ukr

Нові коментарі

Нова тема   Відповісти
Останній раз роздавалося kindoldrat1 (2018-11-25)
Автор Повідомлення
PetrovaOlena 
Новенький


З нами з: 07.10.17
Востаннє: 25.11.20
Повідомлень: 4

2017-10-14 13:39  
Молодий Шелдон (Сезон 1, Серія 1) / Young Sheldon (Season 1, Episode 1) (2017 - ) 720р Eng | sub Ukr



Жанр: комедія, ситком
Країна: США



Кінокомпанія: Chuck Lorre Productions, Warner Bros. Television
Режисер: Чак Лорі, Стівен Моларо
Актори: Аєн Армітідж, Зої Перрі, Ленс Барбер, Джим Парсон(голос) та інші.
Сюжет:
Серіал розповідає про дитинство Шелдона Купера.

Тривалість: 1 серія - ~ 22 хв.
Перелік серій
1 серія - Пілот
Якість:
Відео:
кодек:
розмір кадру: 1 280 х 720
бітрейт: ~ 2 600 кб/с

Аудіо:
мова: англійська
переклад: оригінал
кодек: 5.1
бітрейт: 384 кб/с

Субтитри:
мова: українська
тип: програмні (м'які)
формат: *.srt (Перекладено на Паляниці)
Info
General
Unique ID : 213635907094168265543511717483784765659 (0xA0B8C770EDA3D105A8970E98371500DB)
Complete name : D:Young.Sheldon.S01E01.720p.HDTV.-DIMENSION\Young.Sheldon.S01E01.720p.HDTV.-DIMENSION.
Format :
Format version : Version 2
File size : 469 MiB
Duration : 21 min 28 s
Overall bit rate : 3 052 kb/s
Encoded date : UTC 2017-09-25 20:09:43
Writing application : v3.1.0 ('Happy up here') built on Jan 19 2010 12:09:24
Writing library : libebml v0.7.9 + v0.8.1

Video
ID : 1
Format : AVC
Format/Info : Advanced Video Codec
Format profile : [email protected]
Format settings, CABAC : Yes
Format settings, RefFrames : 8 frames
Codec ID : V_MPEG4/ISO/AVC
Duration : 21 min 27 s
Bit rate : 2 607 kb/s
Width : 1 280 pixels
Height : 720 pixels
Display aspect ratio : 16:9
Frame rate mode : Constant
Frame rate : 23.976 (24000/1001) FPS
Color space : YUV
Chroma subsampling : 4:2:0
Bit depth : 8 bits
Scan type : Progressive
Bits/(Pixel*Frame) : 0.118
Stream size : 400 MiB (85%)
Writing library : core 152 r2851 ba24899
Encoding settings : cabac=1 / ref=8 / deblock=1:-2:-2 / analyse=0x3:0x113 / me=umh / subme=9 / psy=1 / psy_rd=1.00:0.00 / mixed_ref=1 / me_range=24 / chroma_me=1 / trellis=2 / 8x8dct=1 / cqm=0 / deadzone=21,11 / fast_pskip=0 / chroma_qp_offset=-2 / threads=12 / lookahead_threads=1 / sliced_threads=0 / nr=0 / decimate=1 / interlaced=0 / bluray_compat=0 / constrained_intra=0 / bframes=5 / b_pyramid=2 / b_adapt=1 / b_bias=0 / direct=3 / weightb=1 / open_gop=0 / weightp=2 / keyint=250 / keyint_min=23 / scenecut=40 / intra_refresh=0 / rc_lookahead=50 / rc=crf / mbtree=1 / crf=18.0 / qcomp=0.60 / qpmin=0 / qpmax=69 / qpstep=4 / ip_ratio=1.40 / aq=1:1.00
Language : English
Default : No
Forced : No

Audio
ID : 2
Format : AC-3
Format/Info : Audio Coding 3
Format settings, Endianness : Big
Codec ID : A_AC3
Duration : 21 min 28 s
Bit rate mode : Constant
Bit rate : 384 kb/s
Channel(s) : 6 channels
Channel positions : Front: L C R, Side: L R, LFE
Sampling rate : 48.0 kHz
Frame rate : 31.250 FPS (1536 SPF)
Bit depth : 16 bits
Compression mode : Lossy
Stream size : 59.0 MiB (13%)
Service kind : Complete Main
Default : Yes
Forced : No
Скріншоти


Джерело: &
Особиста оцінка: 8 - мені сподобалося


Золотий реліз (завантажене не впливає на рейтинг)
 Трекер:    Зареєстрований   

Завантажити / скачати серіал українською



відео для новачків



 Зареєстрований:   2017-10-14 14:37
 Розмір:   469 MB 
 Оцінка серіалу:   9.2/10 (Голосів: 6)
   
bot 
робот


З нами з: 30.09.07
Востаннє: 26.05.05
Повідомлень: 26481

2017-10-14 14:00  
Тему перенесено з Телесеріали до форуму Анонси релізів


PetrovaOlena

zoomymba2012 
VIP


З нами з: 08.01.15
Востаннє: 05.12.20
Повідомлень: 688

2017-10-14 14:21  
шкода що таке лайно переладають, а справді якісні серіали навіть без укр сабів залишаються
Electroz 
Відео Гуртом - підтримка та поширення
Відео Гуртом - підтримка та поширення


З нами з: 18.09.14
Востаннє: 05.12.20
Повідомлень: 4220

2017-10-14 14:24  
PetrovaOlena
Кнопку imdb виправте

bot 
робот


З нами з: 30.09.07
Востаннє: 26.05.05
Повідомлень: 26481

2017-10-14 14:37  
Тему перенесено з Анонси релізів до форуму Телесеріали


PetrovaOlena

PetrovaOlena 
Новенький


З нами з: 07.10.17
Востаннє: 25.11.20
Повідомлень: 4

2017-10-14 15:51  
Додано 1 серію! Приємного перегляду!

Додано через 2 хвилини 54 секунди:

Electroz написано:
Кнопку imdb виправте

Виправлено.

11FrYkT 
Модератор відео


З нами з: 20.02.11
Востаннє: 05.12.20
Повідомлень: 7059

2017-10-14 17:25  
PetrovaOlena , скріншоти мають бути у форматі ПНГ
PetrovaOlena 
Новенький


З нами з: 07.10.17
Востаннє: 25.11.20
Повідомлень: 4

2017-10-14 18:56  
Підкажіть, будь ласка, чому в мене не йде роздача і торрент у вкладці неактивний?

Додано через 1 годину 23 хвилини 46 секунд:

11FrYkT написано:
PetrovaOlena , скріншоти мають бути у форматі ПНГ

виправлено

Fawlty Rock 
Новенький


З нами з: 21.05.11
Востаннє: 05.12.20
Повідомлень: 5

2017-11-17 15:46  
Скажіть, будь ласка, нові серії викладатися будуть?
kumzeley 
Частий відвідувач


З нами з: 26.02.17
Востаннє: 13.05.19
Повідомлень: 26

2018-02-02 13:12  
Типовий американський сімейний комедійний серіал. Додивився до 10 серії та кинув. Воно того не варте ...
Ваш часовий пояс: GMT + 2 Години

Нова тема   Відповісти