Останній король (The Last King) / Birkebeinerne (2016)

Нові коментарі

Нова тема   Відповісти
Автор Повідомлення
Anonymous 







2017-10-13 22:55  
Останній король / The Last King / Birkebeinerne (2016)

Останній король (The Last King) / Birkebeinerne (2016)
Англомовний постер



Жанр: бойовик, драма, пригодницький
Країна: Норвегія, Данія, Швеція, Ірландія, Угорщина



Кінокомпанія: Newgrange Pictures, Nordisk Film Production, Paradox Film 3, Proton Cinema
Режисер: Нільс Ґауп / Nils Gaup
Актори: Якоб Офтебро / Jakob Oftebro, Крістофер Хівью / Kristofer Hivju, Торкел Доммерснес Солдал / Torkel Dommersnes Soldal, Ніколай Лі Каас / Nikolaj Lie Kaas, Пол Сверре Валхейм Хаген / Pål Sverre Valheim Hagen, Асмунд Бреде Ейке / Åsmund Brede Eike, Сьорен Пільмарк / Søren Pilmark, Торбйорн Харр / Thorbjørn Harr, Бйорн Сундквіст / Bjørn Sundquist, Ліа Бойсен / Lia Boysen, Андерс Далберг / Anders Dahlberg, Elg Elgesem, Беньямін Хельстад / Benjamin Helstad, Стіг Хенрік Гофф / Stig Henrik Hoff, Еппе Леурсен / Jeppe Laursen, Адам Немет / Adam Nemet та інші

Сюжет:
1204 рік, Норвегію роздирає громадянська війна. Незаконно народженого сина короля Хокона III Сверрессона і Інги з Вартейга зберігають в глибокій таємниці. Хлопчик був позашлюбним сином короля і народився після його смерті, що спровокувало криваву міжусобицю. Біркебейнери (ополчення, створене його дідом, королем Сверре Сігурдсон) визнали хлопчика спадкоємцем трону Норвегії. Однак католицькі священики оголосили полювання на дитину з метою його знищення.
У 1206 році група озброєних біркебейнерів допомогла Інзі і Хокону втекти на північ. По дорозі їх невеличкий загін потрапив у снігову бурю, але два могутніх воїна, Торстейн Шевла і Шервальд Шрукка, продовжували просуватися на лижах, несучи дитину на руках. Коли Хокона доставили в Тронхейм, король Інге взяв його під своє заступництво.


Вікова категорія: 12+

Тривалість: 01:39:25
Якість:
Відео:
кодек:
розмір кадру: 720 х 304
бітрейт: 1651 кб/с

Аудіо :
мова: українська
переклад: багатоголосий закадровий
кодек: 2.0
бітрейт: 192 кб/с
Info
Код:
General
Complete name               : Birkebeinerne [The Last King] (2016) [Ukr] [Hurtom].avi
Format                      : AVI
Format/Info                 : Audio Video Interleave
File size                   : 1.29 GiB
Duration                    : 1 h 39 min
Overall bit rate            : 1 852 kb/s
Writing application         : VirtualDubModUkr 1.5.10.2 (build 2542/release)
Writing library             : VirtualDubMod build 2542/release

Video
ID                          : 0
Format                      : MPEG-4 Visual
Format profile              : Advanced [email protected]
Format settings             : BVOP1 / Custom Matrix
Format settings, BVOP       : 1
Format settings, QPel       : No
Format settings, GMC        : No warppoints
Format settings, Matrix     : Custom
Codec ID                    :
Codec ID/Hint               :
Duration                    : 1 h 39 min
Bit rate                    : 1 651 kb/s
Width                       : 720 pixels
Height                      : 304 pixels
Display aspect ratio        : 2.35:1
Frame rate                  : 24.000 FPS
Color space                 : YUV
Chroma subsampling          : 4:2:0
Bit depth                   : 8 bits
Scan type                   : Progressive
Compression mode            : Lossy
Bits/(Pixel*Frame)          : 0.314
Stream size                 : 1.15 GiB (89%)
Writing library             : 73

Audio
ID                          : 1
Format                      : AC-3
Format/Info                 : Audio Coding 3
Format settings, Endianness : Big
Codec ID                    : 2000
Duration                    : 1 h 39 min
Bit rate mode               : Constant
Bit rate                    : 192 kb/s
Channel(s)                  : 2 channels
Channel positions           : Front: L R
Sampling rate               : 48.0 kHz
Frame rate                  : 31.250 FPS (1536 SPF)
Bit depth                   : 16 bits
Compression mode            : Lossy
Stream size                 : 136 MiB (10%)
Alignment                   : Split accross interleaves
Interleave, duration        : 42  ms (1.00 video frame)
Interleave, preload duratio : 500  ms
Title                       : Ukr MVO [ICTV]
Service kind                : Complete Main


Джерело: &
Запис з ТБ - Bohdan237, синхронізація Arsenfpu.


 Трекер:    Зареєстрований   

Завантажити / скачати фільм українською



відео для новачків



 Зареєстрований:   2017-10-13 23:00
 Розмір:   1.29 GB 
 Оцінка фільму:   9.3/10 (Голосів: 22)
   
Інші релізи
se_verus 
Новенький


З нами з: 12.04.17
Востаннє: 19.10.17
Повідомлень: 19

2017-10-15 16:46  
Хтось дивився? Фільм вартий перегляду?
Anonymous 







2017-10-15 18:53  
se_verus, див. відгуки там https://toloka.to/t83859#926511
Valenshtein 
Новенький


З нами з: 11.06.17
Востаннє: 20.10.17
Повідомлень: 10

2017-10-15 20:24  
Обожнюю історичні пригодницькі фільми... Цікаво, чи дійсно 800 років тому їздили на лижах)
DM101 
Новенький


З нами з: 01.12.12
Востаннє: 17.10.17
Повідомлень: 2

2017-10-17 15:48  
Valenshtein
от і я задався цим питанням...)

Rewan 
Новенький


З нами з: 23.10.10
Востаннє: 19.10.17
Повідомлень: 17

2017-10-18 15:35  
Тормунд кращий!
Ваш часовий пояс: GMT + 2 Години

Нова тема   Відповісти