Останній король (The Last King) / Birkebeinerne (2016) 720p Ukr/Nor | Sub Eng/Nor

Нові коментарі

Нова тема   Відповісти
Автор Повідомлення
Anonymous 







2017-10-13 20:53  
Останній король / The Last King / Birkebeinerne (2016) 720p Ukr/Nor | Sub Eng/Nor

Останній король (The Last King) / Birkebeinerne (2016) 720p Ukr/Nor | Sub Eng/Nor
Англомовний постер



Жанр: бойовик, драма, пригодницький
Країна: Норвегія, Данія, Швеція, Ірландія, Угорщина



Кінокомпанія: Newgrange Pictures, Nordisk Film Production, Paradox Film 3, Proton Cinema
Режисер: Нільс Ґауп / Nils Gaup
Актори: Якоб Офтебро / Jakob Oftebro, Крістофер Хівью / Kristofer Hivju, Торкел Доммерснес Солдал / Torkel Dommersnes Soldal, Ніколай Лі Каас / Nikolaj Lie Kaas, Пол Сверре Валхейм Хаген / Pål Sverre Valheim Hagen, Асмунд Бреде Ейке / Åsmund Brede Eike, Сьорен Пільмарк / Søren Pilmark, Торбйорн Харр / Thorbjørn Harr, Бйорн Сундквіст / Bjørn Sundquist, Ліа Бойсен / Lia Boysen, Андерс Далберг / Anders Dahlberg, Elg Elgesem, Беньямін Хельстад / Benjamin Helstad, Стіг Хенрік Гофф / Stig Henrik Hoff, Еппе Леурсен / Jeppe Laursen, Адам Немет / Adam Nemet та інші

Сюжет:
1204 рік, Норвегію роздирає громадянська війна. Незаконно народженого сина короля Хокона III Сверрессона і Інги з Вартейга зберігають в глибокій таємниці. Хлопчик був позашлюбним сином короля і народився після його смерті, що спровокувало криваву міжусобицю. Біркебейнери (ополчення, створене його дідом, королем Сверре Сігурдсон) визнали хлопчика спадкоємцем трону Норвегії. Однак католицькі священики оголосили полювання на дитину з метою його знищення.
У 1206 році група озброєних біркебейнерів допомогла Інзі і Хокону втекти на північ. По дорозі їх невеличкий загін потрапив у снігову бурю, але два могутніх воїна, Торстейн Шевла і Шервальд Шрукка, продовжували просуватися на лижах, несучи дитину на руках. Коли Хокона доставили в Тронхейм, король Інге взяв його під своє заступництво.


Вікова категорія: 12+

Тривалість: 01:39:24
Якість: 720p
Відео:
кодек:
розмір кадру: 1280 х 544
бітрейт: 4929 кб/с [crf=18]

Аудіо # 1:
мова: українська
переклад: багатоголосий закадровий
кодек: 2.0
бітрейт: 192 кб/с

Аудіо # 2:
мова: норвезька
переклад: оригінал
кодек: 5.1
бітрейт: 640 кб/с

Субтитри # 1:
мова: англійська
тип: програмні (м'які)
формат: srt

Субтитри # 2:
мова: норвезька
тип: програмні (м'які)
формат: srt

Збережено оригінальні розділи, як на Blu-ray
Info
Код:
Complete name               : Birkebeinerne [The Last King] (2016) [Ukr,Nor sub.Eng,Nor] 720p [Hurtom].
Format                      :
Format version              : Version 4 / Version 2
File size                   : 4.00 GiB
Duration                    : 1 h 39 min
Overall bit rate            : 5 763 kb/s
Cover                       : Yes
Attachments                 : cover.jpg

Video
ID                          : 1
Format                      : AVC
Format/Info                 : Advanced Video Codec
Format profile              : [email protected]
Format settings             : CABAC / 12 Ref Frames
Format settings, CABAC      : Yes
Format settings, RefFrames  : 12 frames
Codec ID                    : V_MPEG4/ISO/AVC
Duration                    : 1 h 39 min
Bit rate                    : 4 929 kb/s
Width                       : 1 280 pixels
Height                      : 544 pixels
Display aspect ratio        : 2.35:1
Frame rate mode             : Constant
Frame rate                  : 24.000 FPS
Color space                 : YUV
Chroma subsampling          : 4:2:0
Bit depth                   : 8 bits
Scan type                   : Progressive
Bits/(Pixel*Frame)          : 0.295
Stream size                 : 3.42 GiB (86%)
Title                       : Останній король / The Last King / Birkebeinerne (2016) 720p Ukr/Nor
Writing library             : core 142 r2431+42 c69a006 tMod [[email protected] X86_64]
Encoding settings           : cabac=1 / ref=12 / deblock=1:-3:-3 / analyse=0x3:0x133 / me=umh / subme=11 / psy=1 / fade_compensate=0.00 / psy_rd=1.05:1.00 / mixed_ref=1 / me_range=32 / chroma_me=1 / trellis=2 / 8x8dct=1 / cqm=0 / deadzone=21,11 / fast_pskip=0 / chroma_qp_offset=-4 / threads=12 / lookahead_threads=2 / sliced_threads=0 / nr=0 / decimate=0 / interlaced=0 / bluray_compat=0 / constrained_intra=0 / fgo=0 / bframes=8 / b_pyramid=2 / b_adapt=2 / b_bias=0 / direct=3 / weightb=1 / open_gop=0 / weightp=2 / keyint=240 / keyint_min=24 / scenecut=40 / intra_refresh=0 / rc_lookahead=60 / rc=crf / mbtree=0 / crf=18.0000 / qcomp=0.60 / qpmin=0:0:0 / qpmax=69:69:69 / qpstep=4 / vbv_maxrate=40000 / vbv_bufsize=30000 / crf_max=0.0 / nal_hrd=none / filler=0 / ip_ratio=1.40 / pb_ratio=1.30 / aq=1:1.00 / aq-sensitivity=10.00 / aq-factor=1.00:1.00:1.00 / aq2=0 / aq3=0
Language                    : Norwegian Nynorsk
Default                     : Yes
Forced                      : No

Audio #1
ID                          : 2
Format                      : AC-3
Format/Info                 : Audio Coding 3
Format settings, Endianness : Big
Codec ID                    : A_AC3
Duration                    : 1 h 39 min
Bit rate mode               : Constant
Bit rate                    : 192 kb/s
Channel(s)                  : 2 channels
Channel positions           : Front: L R
Sampling rate               : 48.0 kHz
Frame rate                  : 31.250 FPS (1536 SPF)
Bit depth                   : 16 bits
Compression mode            : Lossy
Stream size                 : 136 MiB (3%)
Title                       : MVO [ICTV] 2.0 192 Kbps [Hurtom-Arsenfpu, Bohdan237]
Language                    : Ukrainian
Service kind                : Complete Main
Default                     : Yes
Forced                      : Yes

Audio #2
ID                          : 3
Format                      : AC-3
Format/Info                 : Audio Coding 3
Format settings, Endianness : Big
Codec ID                    : A_AC3
Duration                    : 1 h 39 min
Bit rate mode               : Constant
Bit rate                    : 640 kb/s
Channel(s)                  : 6 channels
Channel positions           : Front: L C R, Side: L R, LFE
Sampling rate               : 48.0 kHz
Frame rate                  : 31.250 FPS (1536 SPF)
Bit depth                   : 16 bits
Compression mode            : Lossy
Stream size                 : 455 MiB (11%)
Title                       : Original, 5.1 640 Kbps
Language                    : Norwegian
Service kind                : Complete Main
Default                     : No
Forced                      : No

Text #1
ID                          : 4
Format                      : UTF-8
Codec ID                    : S_TEXT/UTF8
Codec ID/Info               : UTF-8 Plain Text
Duration                    : 1 h 31 min
Bit rate                    : 28 b/s
Count of elements           : 585
Stream size                 : 19.1 KiB (0%)
Title                       : Eng full
Language                    : English
Default                     : No
Forced                      : No

Text #2
ID                          : 5
Format                      : UTF-8
Codec ID                    : S_TEXT/UTF8
Codec ID/Info               : UTF-8 Plain Text
Duration                    : 1 h 36 min
Bit rate                    : 25 b/s
Count of elements           : 576
Stream size                 : 18.3 KiB (0%)
Title                       : Norwegian full
Language                    : Norwegian
Default                     : No
Forced                      : No

Menu
00:00:00.000                : en:Chapter 01
00:09:59.791                : en:Chapter 02
00:19:59.750                : en:Chapter 03
00:29:59.666                : en:Chapter 04
00:39:59.750                : en:Chapter 05
00:49:59.833                : en:Chapter 06
00:59:59.708                : en:Chapter 07
01:09:59.708                : en:Chapter 08
01:19:59.916                : en:Chapter 09
01:29:59.791                : en:Chapter 10
01:39:24.291                : en:Chapter 11


Джерело: &
Запис з ТБ - Bohdan237, синхронізація Arsenfpu.


 Трекер:    Зареєстрований   

Завантажити / скачати фільм українською



відео для новачків



 Зареєстрований:   2017-10-13 21:42
 Розмір:   4 GB 
 Оцінка фільму:   5.5/10 (Голосів: 26)
   
Інші релізи
   Останній король (The Last King) / Birkebeinerne (2016) igor911  28 / 0   1.29 GB   2017-10-13 22:00 
   Останній король / Birkebeinerne (2016) Remux 1080р Ukr/Nor | Sub Nor IronBee  18 / 0   19.37 GB   2017-09-16 18:31 
   Останній король / Birkebeinerne (2016) AVC Arsenfpu  68 / 0   1.78 GB   2017-09-03 13:32 
bot 
робот


З нами з: 30.09.07
Востаннє: 26.05.05
Повідомлень: 17889

2017-10-13 21:42  
Тему перенесено з Анонси релізів до форуму Фільми в HD


igor911

nickname707 
Новенький


З нами з: 18.12.16
Востаннє: 08.12.17
Повідомлень: 8

2017-10-14 07:51  
Це щось інтересне хто дивитися?
Anonymous 







2017-10-14 08:04  
nickname707. див. звідси і нижче https://toloka.to/t83859#926511
Fantasmagor 
Частий відвідувач


З нами з: 14.06.11
Востаннє: 09.12.17
Повідомлень: 33

2017-10-14 13:19  
1080p буде?
Anonymous 







2017-10-14 13:29  
Fantasmagor написано:
1080p буде?

ріп не планую викладати, є ремукс 1080p https://toloka.to/t84118

Ваш часовий пояс: GMT + 2 Години

Нова тема   Відповісти