Овердрайв / Overdrive (2017)

Нові коментарі

Нова тема   Відповісти
Автор Повідомлення
Anonymous 







2017-10-13 08:27  
Овердрайв / Overdrive (2017)

Овердрайв / Overdrive (2017)


Жанр: бойовик, трилер
Країна: США, Франція



Кінокомпанія: Overdrive Productions, Kinology, TF1 Films Production
Режисер: Антоніо Негре / Antonio Negret
Актори: Скотт Іствуд / Scott Eastwood, Ана де Армас / Ana de Armas, Гайя Вайсс / Gaia Weiss, Фредді Торп / Freddie Thorp, Клеменс Шик / Clemens Schick, Саймон Абкарян / Simon Abkarian, Мусса Мааскрі / Moussa Maaskri та інші

Сюжет:
Фільм розповість про двох братів-авантюристів, відомих викрадачів авто, які ведуть розпусний спосіб життя. Хлопці вирушають на Південь Франції у пошуках нових вражень і красивих тачок. Вони стикаються з жорстоким кримінальним босом, що не збирається терпіти самодіяльність в його районі...
Офіційний український трейлер:


Рейтинг MPAA: PG-13 - дітям до 13 років перегляд не бажаний
Вікова категорія: 12+
Тривалість: 01:33:29
Якість: [Hurtom, джерело - Blu-ray]

Відео:
кодек:
розмір кадру: 720 х 304
бітрейт: 1827 кб/с

Аудіо # 1:
мова: українська
переклад: професійний дубльований | студія ААА-sound
кодек: 5.1
бітрейт: 384 кб/с
Інформація про дубляж
Режисер дубляжу: Олександр Єфімов
Ролі дублювали: Дмитро Гаврилов, Павло Скороходько, Юлія Перенчук, Дмитро Завадський, Катерина Брайковська, Андрій Федінчик, Ярослав Чорненький, Юрій Ребрик, Анатолій Зіновенко та інші
Фільм дубльовано студією ААА-sound у 2017 році на замовлення компанії "Вольга Україна"
Info
Код:
General
Complete name               : Overdrive (2017) [Ukr] [Hurtom].avi
Format                      : AVI
Format/Info                 : Audio Video Interleave
File size                   : 1.45 GiB
Duration                    : 1 h 33 min
Overall bit rate            : 2 220 kb/s
Movie name                  : Овердрайв / Overdrive (2017) [Ukr] [Hurtom]
Genre                       : бойовик, трилер
Writing application         : VirtualDubModUkr 1.5.10.2 (build 2542/release)
Writing library             : VirtualDubMod build 2542/release
Comment                     : https://toloka.to/t84537

Video
ID                          : 0
Format                      : MPEG-4 Visual
Format profile              : Advanced [email protected]
Format settings             : BVOP1
Format settings, BVOP       : 1
Format settings, QPel       : No
Format settings, GMC        : No warppoints
Format settings, Matrix     : Default (MPEG)
Codec ID                    :
Codec ID/Hint               :
Duration                    : 1 h 33 min
Bit rate                    : 1 827 kb/s
Width                       : 720 pixels
Height                      : 304 pixels
Display aspect ratio        : 2.35:1
Frame rate                  : 23.976 (24000/1001) FPS
Color space                 : YUV
Chroma subsampling          : 4:2:0
Bit depth                   : 8 bits
Scan type                   : Progressive
Compression mode            : Lossy
Bits/(Pixel*Frame)          : 0.348
Stream size                 : 1.19 GiB (82%)
Writing library             : 67

Audio
ID                          : 1
Format                      : AC-3
Format/Info                 : Audio Coding 3
Format settings, Endianness : Big
Codec ID                    : 2000
Duration                    : 1 h 33 min
Bit rate mode               : Constant
Bit rate                    : 384 kb/s
Channel(s)                  : 6 channels
Channel positions           : Front: L C R, Side: L R, LFE
Sampling rate               : 48.0 kHz
Frame rate                  : 31.250 FPS (1536 SPF)
Bit depth                   : 16 bits
Compression mode            : Lossy
Stream size                 : 256 MiB (17%)
Alignment                   : Split accross interleaves
Interleave, duration        : 42  ms (1.00 video frame)
Interleave, preload duratio : 500  ms
Title                       : Ukr DUB [AAA-sound, iTunes]
Service kind                : Complete Main


Джерело: мій 900й реліз

31.10 реліз оновлено - замінено відеоряд на


 Трекер:    Зареєстрований   

Завантажити / скачати фільм українською



відео для новачків



 Зареєстрований:   2017-10-31 10:59
 Розмір:   1.45 GB 
 Оцінка фільму:   7.3/10 (Голосів: 83)
   
Інші релізи
   Овердрайв / Overdrive (2017) AVC Ukr/Eng | Sub Eng 11FrYkT  14 / 0   2.17 GB   2017-11-01 20:10 
   Овердрайв / Overdrive (2017) 720p Ukr/Eng | Sub Eng igor911  8 / 0   3.17 GB   2017-10-31 23:15 
   Овердрайв / Overdrive (2017) 1080p Ukr/Eng | Sub Eng 11FrYkT  9 / 0   7.43 GB   2017-10-31 19:17 
   Овердрайв / Overdrive (2017) Remux 1080p Ukr/Eng | Sub Eng/Esp igor911  5 / 0   23.28 GB   2017-10-31 00:25 
STALKER_SLX 
Новенький


З нами з: 09.04.10
Востаннє: 12.12.17
Повідомлень: 11

2017-10-17 22:38  
Хто вже переглянув цей фільм - напишіть своє враження, воно того вартує?!
[email protected] 
Новенький


З нами з: 10.05.16
Востаннє: 10.12.17
Повідомлень: 1

2017-10-18 12:02  
гарне досить кіно...
R7DER 
Новенький


З нами з: 25.05.12
Востаннє: 10.12.17
Повідомлень: 8

2017-10-18 12:42  
ТАК СОБІ. НАБІР ШТАМПІВ.
aston13 
Новенький


З нами з: 21.03.17
Востаннє: 11.12.17
Повідомлень: 2

2017-10-18 18:13  
я б сказав реклама BMW
Buzok 
Новенький


З нами з: 15.07.11
Востаннє: 08.12.17
Повідомлень: 14

2017-10-18 22:34  
Туповатий фільмець. Для другого класу початкової школи. До кінця сил не вистачило.
paintergood 
Частий відвідувач


З нами з: 19.12.16
Востаннє: 10.12.17
Повідомлень: 31

2017-10-19 11:24  
Фігня навіть набір нереально крутих тачок не рятує. 1/10
madagaskar1 
VIP


З нами з: 08.05.14
Востаннє: 11.12.17
Повідомлень: 376

2017-10-19 18:22  
тупизна, може школота таке й любить, але я вимкнув на 30 хв, і то половину з часу я їв.
1/10 - навіть гарні дівки не врятували цей фільм. Confused

ohotnik_ 
Частий відвідувач


З нами з: 04.03.11
Востаннє: 10.12.17
Повідомлень: 45

2017-10-20 11:29  
гальмодрайв, не зміг подивитись і половину фільма
skaypenet 
Новенький


З нами з: 31.07.12
Востаннє: 08.12.17
Повідомлень: 12

2017-10-20 14:46  
не дивіться, повна хрінь!
747 
Поважний учасник


З нами з: 21.05.10
Востаннє: 11.12.17
Повідомлень: 162

2017-10-20 21:22  
Жахлива дурня, розрахована на биків та школоту. Вліпив 1, і те за "Анну", бо і дійсно спокуслива дівчина.
П.С. І дійсно, прихована реклЯма БМВ.

gycyll1 
Новенький


З нами з: 21.12.14
Востаннє: 11.12.17
Повідомлень: 7

2017-10-20 21:37  
Салют! Під пивас Фільм в сам раз! Wide grin
kolyan201086 
Новенький


З нами з: 02.10.13
Востаннє: 07.12.17
Повідомлень: 10

2017-10-22 19:19  
Нормальне кіно,на один раз піде. Динамічний сюжет. Очікував гіршого, але норм. Один ДУЖЕ тупий момент був (нащо зупинятись перед мостом, який починае розвалюватись,і потім як він вже розвалюеться стартувати з двох педалей. Навіщо було чекати?). На 7 з 10.
Anonymous 







2017-10-31 11:01  
Реліз оновлено - замінено відеоряд на

ss29slava 
Новенький


З нами з: 28.07.15
Востаннє: 08.12.17
Повідомлень: 1

2017-11-06 10:48  
Нічого надзвичайного. Думаю для єдиного перегляду (щоб час вбити підійде).
jaroslove 
Свій


З нами з: 02.09.11
Востаннє: 10.12.17
Повідомлень: 57

2017-11-06 11:16  
Якщо чесно, то кіно дуже "сире", із категорії "мені нічого робити, перегляну я якесь кіно", а так, щоб спеціально завантажувати, то воно того не вартує.
eXteSy- 
VIP


З нами з: 06.04.09
Востаннє: 12.12.17
Повідомлень: 1678

2017-11-29 23:34  
Простенький екшн з мегавезучими головними героями та купою нереальних подій. Сподобалося, що сцени переслідування зняті без комп’ютерної графіки, окрім аварій та моменту з мостом. І так, тачки класні.
6,5/10

rioter 
Свій


З нами з: 15.01.11
Востаннє: 07.12.17
Повідомлень: 106

2017-12-01 16:09  
Не дуже..
Ваш часовий пояс: GMT + 2 Години

Нова тема   Відповісти