Тачки 3 / Cars 3 (2017)

Нові коментарі

Нова тема   Відповісти
Автор Повідомлення
Anonymous 







2017-10-12 19:35  
Тачки 3 / Cars 3 (2017)




Альтернативні постери









Жанр: комедія, мультфільм, пригоди, сімейний, спорт
Країна: США



Кінокомпанія: Walt Disney Pictures, Pixar Animation Studios
Режисер: Брайан Фі / Brian Fee
Ролі озвучують: Овен Вілсон / Owen Wilson, Крістела Алонзо / Cristela Alonzo, Кріс Купер / Chris Cooper, Натан Філліон / Nathan Fillion, Ларрі-кабельник / Larry the Cable Guy, Армі Гаммер / Armie Hammer, Тоні Шелуб / Tony Shalhoub, Бонні Гант / Bonnie Hunt, Ліа ДеЛарія / Lea DeLaria, Керрі Вашінгтон / Kerry Washington, Марго Мартіндейл / Margo Martindale, Льюїс Гамільтон / Lewis Hamilton, Пол Ньюмен / Paul Newman та інші

Сюжет:
Улюбленець публіки Блискавка МакКвін тепер вважається одним з найдосвідченіших ветеранів автогонок. Сиди собі та попивай бензиновий коктейль і насолоджуйся славою. Але йому як і раніше хочеться перемагати в гонках. Щоб не відставати від суперників на трасі, Блискавці потрібно використовувати все нові й нові технології. Допоможе йому в цьому майстер своєї справи – Круз Рамірес, талановитий механік. Та й без підтримки старих добрих Метра, Саллі та Рамона ніяк не обійтися. Але знайдуться й ті, хто захоче повставляти палиці в колеса. Порядок і безпека світу машин знову опиниться під загрозою, і все через Джексона Сторма.
Офіційні українські трейлери:






Рейтинг MPAA: G - нема вікових обмежень
Вікова категорія: 6+
Тривалість: 01:42:23
Якість: [Hurtom]

Відео:
кодек:
розмір кадру: 720 х 304
бітрейт: 1584 кб/с
примітка: після титрів є додана сцена

Аудіо # 1:
мова: українська
переклад: професійний дубльований
кодек: 5.1
бітрейт: 448 кб/с
Info
Код:
General
Complete name               : Cars 3 (2017) [Ukr] [Hurtom].avi
Format                      : AVI
Format/Info                 : Audio Video Interleave
File size                   : 1.46 GiB
Duration                    : 1 h 42 min
Overall bit rate            : 2 042 kb/s
Movie name                  : Тачки 3 / Cars 3 (2017) [Ukr] [Hurtom]
Genre                       : комедія, мультфільм, пригоди, сімейний, спорт
Writing application         : VirtualDubModUkr 1.5.10.2 (build 2542/release)
Writing library             : VirtualDubMod build 2542/release
Comment                     : https://toloka.to/t84524

Video
ID                          : 0
Format                      : MPEG-4 Visual
Format profile              : Advanced [email protected]
Format settings             : BVOP1
Format settings, BVOP       : 1
Format settings, QPel       : No
Format settings, GMC        : No warppoints
Format settings, Matrix     : Default (MPEG)
Codec ID                    :
Codec ID/Hint               :
Duration                    : 1 h 42 min
Bit rate                    : 1 584 kb/s
Width                       : 720 pixels
Height                      : 304 pixels
Display aspect ratio        : 2.35:1
Frame rate                  : 23.976 (24000/1001) FPS
Color space                 : YUV
Chroma subsampling          : 4:2:0
Bit depth                   : 8 bits
Scan type                   : Progressive
Compression mode            : Lossy
Bits/(Pixel*Frame)          : 0.302
Stream size                 : 1.13 GiB (78%)
Writing library             : 67

Audio
ID                          : 1
Format                      : AC-3
Format/Info                 : Audio Coding 3
Format settings, Endianness : Big
Codec ID                    : 2000
Duration                    : 1 h 42 min
Bit rate mode               : Constant
Bit rate                    : 448 kb/s
Channel(s)                  : 6 channels
Channel positions           : Front: L C R, Side: L R, LFE
Sampling rate               : 48.0 kHz
Frame rate                  : 31.250 FPS (1536 SPF)
Bit depth                   : 16 bits
Compression mode            : Lossy
Stream size                 : 328 MiB (22%)
Alignment                   : Split accross interleaves
Interleave, duration        : 42  ms (1.00 video frame)
Interleave, preload duratio : 500  ms
Title                       : Ukr DUB
Service kind                : Complete Main
Скріншоти
будуть незабаром
Джерело:
Подяка пану Hanway'ю за синхронізацію.

Реліз оновлено - замінено відеоряд на та звук на якісніший




 Трекер:    Зареєстрований   

Завантажити / скачати мультфільм українською



відео для новачків



 Зареєстрований:   2017-10-28 21:50
 Розмір:   1.46 GB 
 Оцінка мультфільму:   9.1/10 (Голосів: 216)
   
Інші релізи
   Тачки 3 / Cars 3 (2017) Remux 1080p Ukr/Eng | Sub Eng 11FrYkT  37 / 3   22.12 GB   2017-11-05 14:12 
   Тачки 3 / Cars 3 (2017) 1080p Ukr/Eng | Sub Eng Electroz  106 / 0   10.44 GB   2017-10-28 19:35 
   Тачки 3 / Cars 3 (2017) 720p Ukr/Eng | Sub Eng 11FrYkT  118 / 0   5.37 GB   2017-10-28 18:56 
cnjvfnjkju 
Новенький


З нами з: 06.03.13
Востаннє: 15.12.17
Повідомлень: 1

2017-10-16 09:34  
Як мульт???
Men1990 
Свій


З нами з: 24.07.10
Востаннє: 09.12.17
Повідомлень: 122

2017-10-16 18:23  
супер. Чекав. Дякую!
Форкуш 
VIP


З нами з: 03.02.10
Востаннє: 15.12.17
Повідомлень: 1944

2017-10-17 22:22  
Мені дуже сподобалося! Старі добрі тачки і смішений Сирник. Правда Ґвідо і Луіджі не мочили жартів. 8/10
Electroz 
Відео Гуртом - підтримка та поширення
Відео Гуртом - підтримка та поширення


З нами з: 18.09.14
Востаннє: 15.12.17
Повідомлень: 2012

2017-10-18 10:59  
Anonymous
Скоріш за все в нашому айтюнсі, також українізований відеоряд.

Anonymous 







2017-10-18 11:02  
Electroz написано:
Скоріш за все в нашому айтюнсі, також українізований відеоряд.

Чомусь не знайшов його в українському айтюнсі.

Did Kokos 
VIP


З нами з: 27.05.13
Востаннє: 15.12.17
Повідомлень: 356

2017-10-19 10:06  
Третя частина є логічним продовженням першої. Присутні драма, гумор, і піднімає різні житейські теми. Така собі більш зріла версія тачок з використанням тих же прийомів. А от яким боком до історії в цілому відноситься друга частина!? У мене якесь противне відчуття, ніби зіпсували якусь цінну річ непотрібною приблудою.
bassoneb 
Свій


З нами з: 12.11.13
Востаннє: 15.12.17
Повідомлень: 83

2017-10-20 11:09  
Мультик супер, переклад бомбезний, єдине що... він занадто дорослий, якось так Happy
[email protected] 
Відео Гуртом - підтримка та поширення
Відео Гуртом - підтримка та поширення


З нами з: 16.06.12
Востаннє: 03.12.17
Повідомлень: 1221

2017-10-20 13:43  
bassoneb все правильно, він орієнтований на широку аудиторію
antik_2008 
Релізер і модератор відео


З нами з: 20.10.08
Востаннє: 15.12.17
Повідомлень: 1458

2017-10-20 18:52  
Гарна частина.
Fonbaron 
Частий відвідувач


З нами з: 09.12.12
Востаннє: 15.12.17
Повідомлень: 48

2017-10-21 22:08  
Так мульт чудовий життєвий
ruba123 
Новенький


З нами з: 27.10.17
Востаннє: 30.10.17
Повідомлень: 1

2017-10-27 15:14  
Чому не можна закачати?? Sad (1)
Anonymous 







2017-10-27 15:29  
ruba123, див. https://toloka.to/faq.php#0
Babudan 
Новенький


З нами з: 05.01.16
Востаннє: 14.12.17
Повідомлень: 5

2017-10-28 15:37  
Теж дуже сподобався!
А от син (7 років) в кінці плакав((( Такщо згодна - мульт більше для дорослих, дитина не зрозуміла вчинку МакКвіна.

Anonymous 







2017-10-28 21:58  
Реліз оновлено - замінено відеоряд на та звук на якісніший

bogdanich 
VIP


З нами з: 24.10.13
Востаннє: 15.12.17
Повідомлень: 517

2017-10-30 19:00  
Гарне продовження! Але трішки затягнуте. До речі, про основний сюжетний поворот я здогадався десь з середини фільму. Надто багато було натяків.
9/10.
Дякую!

Son_of_Anarchy 
Свій


З нами з: 20.02.12
Востаннє: 14.12.17
Повідомлень: 50

2017-11-04 00:11  
нарешті!
mio23 
Новенький


З нами з: 01.01.14
Востаннє: 11.11.17
Повідомлень: 9

2017-11-07 12:26  
Did Kokos
повністю Вас підтримую. Друга частина то взагалі невдалий проект.

alisonya 
Частий відвідувач


З нами з: 07.04.11
Востаннє: 15.12.17
Повідомлень: 33

2017-11-15 00:01  
неочікувано, найкраща з трьох частин!
xpo6a4ok 
Новенький


З нами з: 20.08.15
Востаннє: 25.11.17
Повідомлень: 1

2017-11-25 20:51  
Ходили в кіно, шикарний мульт
Ваш часовий пояс: GMT + 2 Години

Нова тема   Відповісти