Тачки 3 / Cars 3 (2017)

Нові коментарі

Нова тема   Відповісти
Автор Повідомлення
Anonymous 







2017-10-12 20:35  
Тачки 3 / Cars 3 (2017)




Альтернативні постери









Жанр: комедія, мультфільм, пригоди, сімейний, спорт
Країна: США



Кінокомпанія: Walt Disney Pictures, Pixar Animation Studios
Режисер: Брайан Фі / Brian Fee
Ролі озвучують: Овен Вілсон / Owen Wilson, Крістела Алонзо / Cristela Alonzo, Кріс Купер / Chris Cooper, Натан Філліон / Nathan Fillion, Ларрі-кабельник / Larry the Cable Guy, Армі Гаммер / Armie Hammer, Тоні Шелуб / Tony Shalhoub, Бонні Гант / Bonnie Hunt, Ліа ДеЛарія / Lea DeLaria, Керрі Вашінгтон / Kerry Washington, Марго Мартіндейл / Margo Martindale, Льюїс Гамільтон / Lewis Hamilton, Пол Ньюмен / Paul Newman та інші

Сюжет:
Улюбленець публіки Блискавка МакКвін тепер вважається одним з найдосвідченіших ветеранів автогонок. Сиди собі та попивай бензиновий коктейль і насолоджуйся славою. Але йому як і раніше хочеться перемагати в гонках. Щоб не відставати від суперників на трасі, Блискавці потрібно використовувати все нові й нові технології. Допоможе йому в цьому майстер своєї справи – Круз Рамірес, талановитий механік. Та й без підтримки старих добрих Метра, Саллі та Рамона ніяк не обійтися. Але знайдуться й ті, хто захоче повставляти палиці в колеса. Порядок і безпека світу машин знову опиниться під загрозою, і все через Джексона Сторма.
Офіційні українські трейлери:






Рейтинг MPAA: G - нема вікових обмежень
Вікова категорія: 6+
Тривалість: 01:42:23
Якість: [Hurtom]

Відео:
кодек:
розмір кадру: 720 х 304
бітрейт: 1637 кб/с
примітка # 1: після титрів є додана сцена
примітка # 2: мадярська локалізація відеоряду, як і у всіх інших релізах на Толоці
примітка # 3: при появі якіснішого або українського відеоряду реліз буде оновлено

Аудіо # 1:
мова: українська
переклад: професійний дубльований
кодек: 5.1
бітрейт: 384 кб/с
Info
Код:
General
Complete name               : Cars 3 (2017) [Hurtom].avi
Format                      : AVI
Format/Info                 : Audio Video Interleave
File size                   : 1.45 GiB
Duration                    : 1 h 42 min
Overall bit rate            : 2 030 kb/s
Movie name                  : Тачки 3 / Cars 3 (2017) [Hurtom]
Writing application         : VirtualDubModUkr 1.5.10.2 (build 2542/release)
Writing library             : VirtualDubMod build 2542/release
Comment                     : https://toloka.to/t84524

Video
ID                          : 0
Format                      : MPEG-4 Visual
Format profile              : Advanced [email protected]
Format settings             : BVOP1
Format settings, BVOP       : 1
Format settings, QPel       : No
Format settings, GMC        : No warppoints
Format settings, Matrix     : Default (MPEG)
Codec ID                    :
Codec ID/Hint               :
Duration                    : 1 h 42 min
Bit rate                    : 1 637 kb/s
Width                       : 720 pixels
Height                      : 304 pixels
Display aspect ratio        : 2.35:1
Frame rate                  : 23.976 (24000/1001) FPS
Color space                 : YUV
Chroma subsampling          : 4:2:0
Bit depth                   : 8 bits
Scan type                   : Progressive
Compression mode            : Lossy
Bits/(Pixel*Frame)          : 0.312
Stream size                 : 1.17 GiB (81%)
Writing library             : 67

Audio
ID                          : 1
Format                      : AC-3
Format/Info                 : Audio Coding 3
Format settings, Endianness : Big
Codec ID                    : 2000
Duration                    : 1 h 42 min
Bit rate mode               : Constant
Bit rate                    : 384 kb/s
Channel(s)                  : 6 channels
Channel positions           : Front: L C R, Side: L R, LFE
Sampling rate               : 48.0 kHz
Frame rate                  : 31.250 FPS (1536 SPF)
Bit depth                   : 16 bits
Compression mode            : Lossy
Stream size                 : 281 MiB (19%)
Alignment                   : Split accross interleaves
Interleave, duration        : 42  ms (1.00 video frame)
Interleave, preload duratio : 500  ms
Service kind                : Complete Main


Джерело:
Подяка пану Hanway'ю за синхронізацію звуку.



 Трекер:    Зареєстрований   

Завантажити / скачати мультфільм українською



відео для новачків



 Зареєстрований:   2017-10-15 23:59
 Розмір:   1.45 GB 
 Оцінка мультфільму:   9.7/10 (Голосів: 68)
   
Інші релізи
   Тачки 3 / Cars 3 (2017) 720p Ukr/Eng 11FrYkT  72 / 1   2.67 GB   2017-10-15 22:17 
   Тачки 3 / Cars 3 (2017) 1080p Ukr/Eng Electroz  201 / 4   3.62 GB   2017-10-15 20:07 
bot 
робот


З нами з: 30.09.07
Востаннє: 26.05.05
Повідомлень: 17702

2017-10-15 23:58  
Тему перенесено з Анонси релізів до форуму Мультфільми


igor911

cnjvfnjkju 
Новенький


З нами з: 06.03.13
Востаннє: 20.10.17
Повідомлень: 1

2017-10-16 10:34  
Як мульт???
Men1990 
Свій


З нами з: 24.07.10
Востаннє: 18.10.17
Повідомлень: 121

2017-10-16 19:23  
супер. Чекав. Дякую!
Форкуш 
VIP


З нами з: 03.02.10
Востаннє: 20.10.17
Повідомлень: 1880

2017-10-17 23:22  
Мені дуже сподобалося! Старі добрі тачки і смішений Сирник. Правда Ґвідо і Луіджі не мочили жартів. 8/10
lion822 
Свій


З нами з: 27.12.11
Востаннє: 20.10.17
Повідомлень: 92

2017-10-18 09:21  
пояснiть що таке мадярська локалізація відеоряду ?
Anonymous 







2017-10-18 11:19  
lion822, див. 1й скріншот.

Додано через 1 хвилину 43 секунди:

*деякі написи в мульті та під час титрів локалізовано + інформація про озвучення в титрах

Electroz 
Відео Гуртом - підтримка та поширення
Відео Гуртом - підтримка та поширення


З нами з: 18.09.14
Востаннє: 20.10.17
Повідомлень: 1694

2017-10-18 11:59  
Anonymous
Скоріш за все в нашому айтюнсі, також українізований відеоряд.

Anonymous 







2017-10-18 12:02  
Electroz написано:
Скоріш за все в нашому айтюнсі, також українізований відеоряд.

Чомусь не знайшов його в українському айтюнсі.

Did Kokos 
VIP


З нами з: 27.05.13
Востаннє: 20.10.17
Повідомлень: 352

2017-10-19 11:06  
Третя частина є логічним продовженням першої. Присутні драма, гумор, і піднімає різні житейські теми. Така собі більш зріла версія тачок з використанням тих же прийомів. А от яким боком до історії в цілому відноситься друга частина!? У мене якесь противне відчуття, ніби зіпсували якусь цінну річ непотрібною приблудою.
bassoneb 
Свій


З нами з: 12.11.13
Востаннє: 20.10.17
Повідомлень: 75

2017-10-20 12:09  
Мультик супер, переклад бомбезний, єдине що... він занадто дорослий, якось так Happy
Ваш часовий пояс: GMT + 2 Години

Нова тема   Відповісти