Шанс (Сезон 2) / Chance (Season 2) (2017) 720p Ukr/Eng

Нові коментарі

Нова тема   Відповісти
Автор Повідомлення
Anonymous 







2017-10-12 19:27  
Шанс (Сезон 2) / Chance (Season 2) (2017) 720p Ukr/Eng

Шанс (Сезон 2) / Chance (Season 2) (2017) 720p Ukr/Eng

Альтернативні постери




повнорозмірні зображення відкриються по кліку (з натиснутим CTRL чи кліком середньою кнопкою мишки - у новій вкладці)


Жанр: драма, трилер
Країна: США



Кінокомпанія: Fox 21, Groundswell Productions
Режисер: Леонард Абрахамсон / Lenny Abrahamson
Актори: Г’ю Лорі / Hugh Laurie, Ітан Саплі / Ethan Suplee, Сел Лопес / Sal Lopez, Кевін Карскаллен / Kevin Carscallen, Джо Метені / Joe Metheny, Томас В. Стюарт / Thomas W. Stewart, Вільям Барбо / William W. Barbour, Керол Джефферсон / Carol Jefferson, Брюс Блау / Bruce Blau, Дена Боден / Dana Boden та інші

Сюжет:
Судовий психоневролог (Г’ю Лорі) помиляється в діагнозі, що призводить до смерті пацієнтки. Чоловік загиблої вирішує помститися героєві… Тож, мимоволі, його було втягнено до небезпечного світу корупції, криміналу та неспокійних ночей. Серіал знято за романом Кема Нанна — американського романіста.


Тривалість: 1 серія: 45-56 хв. (цілком серій: 10)
Перелік серій з графіком показу в США

1. Багатоосьова Система / Multiaxial System, 11.10.2017
2. Дуже особлива цибуля / A Very Special Onion, 11.10.2017
3. Пригоди Фліткрафта / The Flitcraft Parable, 11.10.2017
4. Механізм копіювання / The Coping Mechanism, 18.10.2017
5. Зібрання творів Вільяма Шекспіра / The Collected Works of William Shakespeare, 25.10.2017
6. Шоста серія / Treasures in Jars of Clay, 01.11.2017
7. Сьома серія / Define Normal, 08.11.2017
8. Восьма серія / An Infant, A Brute or a Wild Beast, 15.11.2017
9. Дев'ята серія / A Madness of Two, 22.11.2017
10. Десята серія / Especially If You Run Away, 29.11.2017
Якість: 720p
Відео:
кодек:
розмір кадру: 1280 х 720
бітрейт: 1624-2064 Кбіт/с

Аудіо #1:
мова: українська
переклад: багатоголосий закадровий | Студія "Омікрон" на замовлення UA Team
кодек: 2.0
бітрейт: 128 кб/с
ролі озвучили: Г’ю Лорі - Євген Малуха

Аудіо #2:
мова: англійська
переклад: оригінал
кодек: 2.0
бітрейт: 64 кб/с
Info
Код:
Complete name               : Chance.S02E04..720p.Ukr.Eng.uateam.
Format                      :
Format version              : Version 4 / Version 2
File size                   : 834 MiB
Duration                    : 52 min 22 s
Overall bit rate            : 2 228 kb/s
Movie name                  : Chance.S02E04..720p.Ukr.Eng.uateam.tv
Encoded date                : UTC 2017-10-20 13:37:16
Writing application         : mkvmerge v9.9.0 ('Pick Up') 64bit
Writing library             : libebml v1.3.4 + libmatroska v1.4.5

Video
ID                          : 1
Format                      : AVC
Format/Info                 : Advanced Video Codec
Format profile              : [email protected]
Format settings             : CABAC / 5 Ref Frames
Format settings, CABAC      : Yes
Format settings, RefFrames  : 5 frames
Codec ID                    : V_MPEG4/ISO/AVC
Duration                    : 52 min 22 s
Bit rate                    : 2 034 kb/s
Width                       : 1 280 pixels
Height                      : 720 pixels
Display aspect ratio        : 16:9
Frame rate mode             : Constant
Frame rate                  : 23.976 (24000/1001) FPS
Color space                 : YUV
Chroma subsampling          : 4:2:0
Bit depth                   : 8 bits
Scan type                   : Progressive
Bits/(Pixel*Frame)          : 0.092
Stream size                 : 762 MiB (91%)
Language                    : English
Default                     : Yes
Forced                      : No

Audio #1
ID                          : 2
Format                      : AC-3
Format/Info                 : Audio Coding 3
Format settings, Endianness : Big
Codec ID                    : A_AC3
Duration                    : 52 min 22 s
Bit rate mode               : Constant
Bit rate                    : 128 kb/s
Channel(s)                  : 2 channels
Channel positions           : Front: L R
Sampling rate               : 48.0 kHz
Frame rate                  : 31.250 FPS (1536 SPF)
Bit depth                   : 16 bits
Compression mode            : Lossy
Stream size                 : 47.9 MiB (6%)
Title                       : MVO Omikron studio for UAteam.tv
Language                    : Ukrainian
Service kind                : Complete Main
Default                     : Yes
Forced                      : No

Audio #2
ID                          : 3
Format                      :
Format/Info                 : Advanced Audio Codec
Format profile              : HE- / LC
Format settings             : Explicit
Codec ID                    : A_AAC-2
Duration                    : 52 min 22 s
Bit rate                    : 64.0 kb/s
Channel(s)                  : 2 channels
Channel positions           : Front: L R
Sampling rate               : 48.0 kHz / 24.0 kHz
Frame rate                  : 23.438 FPS (1024 SPF)
Compression mode            : Lossy
Stream size                 : 24.0 MiB (3%)
Language                    : English
Default                     : No
Forced                      : No


Джерело:
За український постер подяка zed'у.



Авторський реліз (завантажувати можна без реєстрації)
 Трекер:    Зареєстрований   

Завантажити / скачати серіал українською



відео для новачків



 Зареєстрований:   2017-12-08 16:19
 Розмір:   7.09 GB 
 Оцінка серіалу:   7.4/10 (Голосів: 41)
   
nickname707 
Новенький


З нами з: 18.12.16
Востаннє: 08.12.17
Повідомлень: 8

2017-10-14 07:49  
В другому сезоні нового постера нема.
Victor_Scythian 
Свій


З нами з: 06.01.17
Востаннє: 17.12.17
Повідомлень: 100

2017-10-14 19:33  
Дякую!
Anonymous 







2017-10-20 07:41  
Додано другу та третю серії.
Не забуваємо підтримати вихід наступних http://uateam.tv/help-us !

OL3X 
VIP


З нами з: 25.11.15
Востаннє: 17.12.17
Повідомлень: 408

2017-10-20 22:03  
Друга серія
Десь 10:00
"включити" чи "увімкнути"
як правильно?

Anonymous 







2017-10-22 16:24  
+ 4 серія. Підтримати озвучення наступних серій: http://uateam.tv/help-us
tetna 
VIP


З нами з: 21.11.14
Востаннє: 18.12.17
Повідомлень: 410

2017-10-24 10:01  
який класнючий серіал
Anonymous 







2017-10-26 23:01  
+5 серія
Anonymous 







2017-11-03 02:53  
UA Team написано:
6 серію перенесено орієнтовно на понеділок через хворобу

Підтримати озвучення наступних серій можна тут https://uateam.tv/help-us

tetna 
VIP


З нами з: 21.11.14
Востаннє: 18.12.17
Повідомлень: 410

2017-11-10 09:28  
не скажете, коли буде 6?
Anonymous 







2017-11-12 01:25  
+6 та 7 серії
leicheman 
Відео Гуртом - підтримка та поширення
Відео Гуртом - підтримка та поширення


З нами з: 03.07.14
Востаннє: 18.12.17
Повідомлень: 1479

2017-11-13 14:25  
Оце подій для однієї 7ї серії закрутили
Надіюсь , що малу Ченса так просто не змиють, а мамка ще та курва і що усе з тією вагітною прибиральницею в порядку.

Anonymous 







2017-11-19 19:25  
Додано 8-у серію.
Anonymous 







2017-11-26 23:41  
Додано дев'яту серію.
tetna 
VIP


З нами з: 21.11.14
Востаннє: 18.12.17
Повідомлень: 410

2017-12-07 10:11  
а коли 10? )
Anonymous 







2017-12-07 10:36  
tetna написано:
а коли 10?

ніяких новин щодо цього ні на сайті, ні в ФБ UATeam немає.

PaBLo.Che 
VIP


З нами з: 20.04.09
Востаннє: 15.12.17
Повідомлень: 261

2017-12-08 15:52  
Anonymous написано:
ніяких новин ... немає.

Вже є 10

Anonymous 







2017-12-08 16:22  
Додано фінальну десяту серію.
tetna 
VIP


З нами з: 21.11.14
Востаннє: 18.12.17
Повідомлень: 410

2017-12-09 01:34  
який милий фінал! серіал - супер. 2й сезон вдвічі цікавіший.
Ваш часовий пояс: GMT + 2 Години

Нова тема   Відповісти