Шанс (Сезон 2, Серія 1) / Chance (Season 2, Episodes 1) (2017) 720p Ukr/Eng

Нові коментарі

Нова тема   Відповісти
Автор Повідомлення
Anonymous 







2017-10-12 20:27  
Шанс (Сезон 2, Серія 1) / Chance (Season 2, Episodes 1) (2017) 720p Ukr/Eng

Шанс (Сезон 2, Серія 1) / Chance (Season 2, Episodes 1) (2017) 720p Ukr/Eng

Альтернативні постери




повнорозмірні зображення відкриються по кліку (з натиснутим CTRL чи кліком середньою кнопкою мишки - у новій вкладці)


Жанр: драма, трилер
Країна: США



Кінокомпанія: Fox 21, Groundswell Productions
Режисер: Леонард Абрахамсон / Lenny Abrahamson
Актори: Г’ю Лорі / Hugh Laurie, Ітан Саплі / Ethan Suplee, Сел Лопес / Sal Lopez, Кевін Карскаллен / Kevin Carscallen, Джо Метені / Joe Metheny, Томас В. Стюарт / Thomas W. Stewart, Вільям Барбо / William W. Barbour, Керол Джефферсон / Carol Jefferson, Брюс Блау / Bruce Blau, Дена Боден / Dana Boden та інші

Сюжет:
Судовий психоневролог (Г’ю Лорі) помиляється в діагнозі, що призводить до смерті пацієнтки. Чоловік загиблої вирішує помститися героєві… Тож, мимоволі, його було втягнено до небезпечного світу корупції, криміналу та неспокійних ночей. Серіал знято за романом Кема Нанна — американського романіста.

Український тизер-трейлер першого сезону від UA Team:

Тривалість: 1 серія: 45 хв. (цілком серій: 1)
Перелік серій, графік показу в США

1. Multiaxial System, 11.10.2017
2. A Very Special Onion, 11.10.2017
3. The Flitcraft Parable, 11.10.2017
4. The Coping Mechanism, 18
5. The Collected Works of William Shakespeare, 25.10.2017
6. Treasures in Jars of Clay, 01.11.2017
7. Define Normal, 08.11.2017
8. An Infant, A Brute or a Wild Beast, 15.11.2017
9. A Madness of Two, 22.11.2017
10. Especially If You Run Away, 29.11.2017
Якість: 720p
Відео:
кодек:
розмір кадру: 1280 х 720
бітрейт: 1632 Кбіт/с

Аудіо #1:
мова: українська
переклад: багатоголосий закадровий | Студія "Омікрон" на замовлення UA Team
кодек: 2.0
бітрейт: 128 кб/с
ролі озвучили: Г’ю Лорі - Євген Малуха

Аудіо #2:
мова: англійська
переклад: оригінал
кодек: 2.0
бітрейт: 64 кб/с
Info
Код:
Complete name               : Chance.S02E01..720p.Ukr.Eng.uateam.
Format                      :
Format version              : Version 4 / Version 2
File size                   : 592 MiB
Duration                    : 45 min 17 s
Overall bit rate            : 1 826 kb/s
Movie name                  : Chance.S02E01..Ukr.uateam.tv
Encoded date                : UTC 2017-10-13 20:52:30
Writing application         : mkvmerge v9.9.0 ('Pick Up') 64bit
Writing library             : libebml v1.3.4 + libmatroska v1.4.5

Video
ID                          : 1
Format                      : AVC
Format/Info                 : Advanced Video Codec
Format profile              : [email protected]
Format settings             : CABAC / 5 Ref Frames
Format settings, CABAC      : Yes
Format settings, RefFrames  : 5 frames
Codec ID                    : V_MPEG4/ISO/AVC
Duration                    : 45 min 16 s
Bit rate                    : 1 632 kb/s
Width                       : 1 280 pixels
Height                      : 720 pixels
Display aspect ratio        : 16:9
Frame rate mode             : Constant
Frame rate                  : 23.976 (24000/1001) FPS
Color space                 : YUV
Chroma subsampling          : 4:2:0
Bit depth                   : 8 bits
Scan type                   : Progressive
Bits/(Pixel*Frame)          : 0.074
Stream size                 : 529 MiB (89%)
Language                    : English
Default                     : Yes
Forced                      : No

Audio #1
ID                          : 2
Format                      : AC-3
Format/Info                 : Audio Coding 3
Format settings, Endianness : Big
Codec ID                    : A_AC3
Duration                    : 45 min 17 s
Bit rate mode               : Constant
Bit rate                    : 128 kb/s
Channel(s)                  : 2 channels
Channel positions           : Front: L R
Sampling rate               : 48.0 kHz
Frame rate                  : 31.250 FPS (1536 SPF)
Bit depth                   : 16 bits
Compression mode            : Lossy
Stream size                 : 41.5 MiB (7%)
Title                       : MVO Omikron studio for UAteam.tv
Language                    : Ukrainian
Service kind                : Complete Main
Default                     : Yes
Forced                      : No

Audio #2
ID                          : 3
Format                      :
Format/Info                 : Advanced Audio Codec
Format profile              : HE- / LC
Format settings             : Explicit
Codec ID                    : A_AAC-2
Duration                    : 45 min 17 s
Bit rate                    : 64.0 kb/s
Channel(s)                  : 2 channels
Channel positions           : Front: L R
Sampling rate               : 48.0 kHz / 24.0 kHz
Frame rate                  : 23.438 FPS (1024 SPF)
Compression mode            : Lossy
Stream size                 : 20.7 MiB (4%)
Language                    : English
Default                     : No
Forced                      : No


Джерело:
За український постер подяка zed'у.



UA Team 11.10.2017 написано:
Ось і почався другий сезон серіалу "Шанс"... У понеділок-вівторок реліз другої та третьої серії.


Авторський реліз (завантажувати можна без реєстрації)
 Трекер:    Зареєстрований   

Завантажити / скачати серіал українською



відео для новачків



 Зареєстрований:   2017-10-14 00:30
 Розмір:   592 MB 
 Оцінка серіалу:   10/10 (Голосів: 7)
   
bot 
робот


З нами з: 30.09.07
Востаннє: 26.05.05
Повідомлень: 17695

2017-10-14 00:30  
Тему перенесено з Анонси релізів до форуму Серіали в HD


igor911

nickname707 
Новенький


З нами з: 18.12.16
Востаннє: 16.10.17
Повідомлень: 7

2017-10-14 08:49  
В другому сезоні нового постера нема.
Victor_Scythian 
Свій


З нами з: 06.01.17
Востаннє: 18.10.17
Повідомлень: 68

2017-10-14 20:33  
Дякую!
Ваш часовий пояс: GMT + 2 Години

Нова тема   Відповісти