Щоденник слабака 4: Довга дорога / Diary of a Wimpy Kid: The Long Haul (2017) Remux 1080p Ukr/Eng | Sub Ukr/Eng

Нові коментарі

Нова тема   Відповісти
Автор Повідомлення
Anonymous 







2017-10-12 11:32  
Щоденник слабака 4: Довга дорога / Diary of a Wimpy Kid: The Long Haul (2017) Remux Ukr/Eng | Sub Ukr/Eng

Щоденник слабака 4: Довга дорога / Diary of a Wimpy Kid: The Long Haul (2017) Remux 1080p Ukr/Eng | Sub Ukr/Eng
Інші постери та обкладинки







Жанр: сімейний, комедія
Країна: США



Кінокомпанія: Twentieth Century Fox Film Corporation, TSG Entertainment, Color Force
Режисер: Девід Баверс / David Bowers
Актори: Джейсон Йєн Дракер / Jason Drucker, Алісія Сільверстоун / Alicia Silverstone, Том Еверетт Скотт / Tom Everett Scott, Чарлі Райт / Charlie Wright, Овен Асталош / Owen Asztalos, Алекса Блер Робертсон / Alexa Blair Robertson, Бет Кінер / Beth Keener, Кортні Лорен Каммінгс / Courtney Lauren Cummings та інші

Сюжет:
Четверта екранізація серії дитячих бестселерів Джеффа Кінні. Пригоди цілеспрямованого та кмітливого, але не надто вдачливого та поступливого школяра Ґрега Геффлі. Непередбачувані неприємності переслідують його не тільки в школі, але навіть під час літнього відпочинку, коли Ґрег вмовляє всю свою сім'ю вирушити на ювілей 90-річної бабусі. Хитрун намагається провернути власний таємний план - потрапити на збіговисько геймерів.


Рейтинг MPAA: PG - рекомендується присутність батьків
Вікова категорія: 6+

Тривалість: 01:31:22
Якість: Remux
Відео:
кодек:
розмір кадру: 1920 х 1080
бітрейт: 26,8 Мб/с

Аудіо # 1:
мова: українська
переклад: професійний дубльований
кодек: 5.1
бітрейт: 448 кб/с

Аудіо # 2:
мова: англійська
переклад: оригінал
кодек: -HD MA 7.1
бітрейт: 4540 кб/с

Аудіо # 3:
мова: англійська
переклад: оригінал
кодек: 5.1
бітрейт: 448 кб/с

Субтитри # 1:
мова: українська (форсовані)
тип: програмні (м'які)
формат: srt

Субтитри # 2:
мова: українська (повні)
тип: програмні (м'які)
формат: srt
примітка: виправлено літери Ґ та ґ, замість яких відображались знаки питання у ліцензійних субтитрах з блурея

Субтитри # 3:
мова: українська (повні)
тип: пререндерні
формат: pgs
примітка: оригінальні субтитри з блурея, замість літер Ґ та ґ відображаються знаки питання (понад сотню разів протягом фільму)

Субтитри # 4:
мова: англійська (повні)
тип: пререндерні
формат: pgs

Збережено оригінальні розділи, як на Blu-ray
Info
Код:
Complete name               : Diary of a Wimpy Kid. The Long Haul (2017) [Ukr,Eng sub.Ukr,Eng] Remux 1080p [Hurtom].
Format                      :
Format version              : Version 4 / Version 2
File size                   : 20.6 GiB
Duration                    : 1 h 31 min
Overall bit rate mode       : Variable
Overall bit rate            : 32.3 Mb/s
Cover                       : Yes
Attachments                 : cover.jpg

Video
ID                          : 1
Format                      : AVC
Format/Info                 : Advanced Video Codec
Format profile              : [email protected]
Format settings             : CABAC / 4 Ref Frames
Format settings, CABAC      : Yes
Format settings, RefFrames  : 4 frames
Codec ID                    : V_MPEG4/ISO/AVC
Duration                    : 1 h 31 min
Bit rate mode               : Variable
Bit rate                    : 26.8 Mb/s
Maximum bit rate            : 29.5 Mb/s
Width                       : 1 920 pixels
Height                      : 1 080 pixels
Display aspect ratio        : 16:9
Frame rate mode             : Constant
Frame rate                  : 23.976 (24000/1001) FPS
Color space                 : YUV
Chroma subsampling          : 4:2:0
Bit depth                   : 8 bits
Scan type                   : Progressive
Bits/(Pixel*Frame)          : 0.539
Stream size                 : 17.1 GiB (83%)
Title                       : Щоденник слабака 4: Довга дорога / Diary of a Wimpy Kid: The Long Haul (2017) Remux 1080p Ukr/Eng [Blu-ray EUR, BlueBird]
Language                    : English
Default                     : Yes
Forced                      : No

Audio #1
ID                          : 2
Format                      : AC-3
Format/Info                 : Audio Coding 3
Format settings, Endianness : Big
Codec ID                    : A_AC3
Duration                    : 1 h 31 min
Bit rate mode               : Constant
Bit rate                    : 448 kb/s
Channel(s)                  : 6 channels
Channel positions           : Front: L C R, Side: L R, LFE
Sampling rate               : 48.0 kHz
Frame rate                  : 31.250 FPS (1536 SPF)
Bit depth                   : 16 bits
Compression mode            : Lossy
Stream size                 : 293 MiB (1%)
Title                       : Dub [Blu-ray EUR] 5.1 448 Kbps
Language                    : Ukrainian
Service kind                : Complete Main
Default                     : Yes
Forced                      : Yes

Audio #2
ID                          : 3
Format                      :
Format/Info                 : Digital Theater Systems
Format profile              : MA / Core
Mode                        : 16
Format settings, Endianness : Big
Codec ID                    : A_DTS
Duration                    : 1 h 31 min
Bit rate mode               : Variable / Constant
Bit rate                    : 4 540 kb/s / 1 509 kb/s
Channel(s)                  : 8 channels / 6 channels
Channel positions           : Front: L C R, Side: L R, Back: L R, LFE / Front: L C R, Side: L R, LFE
Sampling rate               : 48.0 kHz
Frame rate                  : 93.750 FPS (512 SPF)
Bit depth                   : 24 bits
Compression mode            : Lossless / Lossy
Stream size                 : 2.90 GiB (14%)
Title                       : Original, -HD MA 7.1 4540 Kbps
Language                    : English
Default                     : No
Forced                      : No

Audio #3
ID                          : 4
Format                      : AC-3
Format/Info                 : Audio Coding 3
Format settings, Endianness : Big
Codec ID                    : A_AC3
Duration                    : 1 h 31 min
Bit rate mode               : Constant
Bit rate                    : 448 kb/s
Channel(s)                  : 6 channels
Channel positions           : Front: L C R, Side: L R, LFE
Sampling rate               : 48.0 kHz
Frame rate                  : 31.250 FPS (1536 SPF)
Bit depth                   : 16 bits
Compression mode            : Lossy
Stream size                 : 293 MiB (1%)
Title                       : Original, 5.1 448 Kbps
Language                    : English
Service kind                : Complete Main
Default                     : No
Forced                      : No

Text #1
ID                          : 5
Format                      : UTF-8
Codec ID                    : S_TEXT/UTF8
Codec ID/Info               : UTF-8 Plain Text
Duration                    : 1 h 22 min
Bit rate                    : 1 b/s
Count of elements           : 15
Stream size                 : 771 Bytes (0%)
Title                       : Ukr forced [Blu-ray EUR, Hurtom-igor911]
Language                    : Ukrainian
Default                     : Yes
Forced                      : Yes

Text #2
ID                          : 6
Format                      : UTF-8
Codec ID                    : S_TEXT/UTF8
Codec ID/Info               : UTF-8 Plain Text
Duration                    : 1 h 30 min
Bit rate                    : 85 b/s
Count of elements           : 993
Stream size                 : 56.6 KiB (0%)
Title                       : Ukr full UTF-8 [Blu-ray EUR] [Hurtom-igor911]
Language                    : Ukrainian
Default                     : No
Forced                      : No

Text #3
ID                          : 7
Format                      : PGS
Muxing mode                 : zlib
Codec ID                    : S_HDMV/PGS
Codec ID/Info               : Picture based subtitle format used on BDs/HD-DVDs
Duration                    : 1 h 30 min
Bit rate                    : 34.2 kb/s
Count of elements           : 2008
Stream size                 : 22.2 MiB (0%)
Title                       : Ukr full [Blu-ray EUR]
Language                    : Ukrainian
Default                     : No
Forced                      : No

Text #4
ID                          : 8
Format                      : PGS
Muxing mode                 : zlib
Codec ID                    : S_HDMV/PGS
Codec ID/Info               : Picture based subtitle format used on BDs/HD-DVDs
Duration                    : 1 h 26 min
Bit rate                    : 47.7 kb/s
Count of elements           : 2901
Stream size                 : 29.5 MiB (0%)
Title                       : Eng full
Language                    : English
Default                     : No
Forced                      : No

Menu
00:00:00.000                : en:Chapter 1
00:05:27.118                : en:Chapter 2
00:09:28.651                : en:Chapter 3
00:12:02.930                : en:Chapter 4
00:15:17.124                : en:Chapter 5
00:19:29.209                : en:Chapter 6
00:24:48.904                : en:Chapter 7
00:29:24.345                : en:Chapter 8
00:31:39.606                : en:Chapter 9
00:34:50.671                : en:Chapter 10
00:39:47.927                : en:Chapter 11
00:42:06.315                : en:Chapter 12
00:44:52.356                : en:Chapter 13
00:48:40.626                : en:Chapter 14
00:52:07.374                : en:Chapter 15
00:55:33.079                : en:Chapter 16
00:58:14.199                : en:Chapter 17
01:01:03.785                : en:Chapter 18
01:04:15.601                : en:Chapter 19
01:10:31.227                : en:Chapter 20
01:14:59.661                : en:Chapter 21
01:17:58.048                : en:Chapter 22
01:21:33.430                : en:Chapter 23
01:23:46.187                : en:Chapter 24


Джерело: &
Розпізнавання та робота з субтитрами - igor911



Золотий реліз (завантажене не впливає на рейтинг)
 Трекер:    Зареєстрований   

Завантажити / скачати фільм українською



відео для новачків



 Зареєстрований:   2017-10-12 15:19
 Розмір:   20.6 GB 
 Оцінка фільму:   7/10 (Голосів: 6)
   
Anonymous 







2017-10-12 15:22  
Реліз готовий для завантаження.
>>> Пошук всіх релізів всіх частин "Щоденників слабака" <<<

mrsdoubtfire 
Свій


З нами з: 22.10.15
Востаннє: 19.10.17
Повідомлень: 133

2017-10-12 19:00  
Гарний звук. Культово поганий фільм.
Ваш часовий пояс: GMT + 2 Години

Нова тема   Відповісти