Капітан Підштанько / Captain Underpants: The First Epic Movie (2017)

Нові коментарі

Нова тема   Відповісти
Автор Повідомлення
Anonymous 







2017-10-11 20:43  
Капітан Підштанько / Captain Underpants: The First Epic Movie (2017)

Капітан Підштанько / Captain Underpants: The First Epic Movie (2017)


Жанр: анімація, екшн, комедія, сімейний
Країна: США



Кінокомпанія: DreamWorks Animation, Scholastic Productions
Режисер: Девід Сорен / David Soren
Актори: Ед Гелмс / Ed Helms, Джордан Піл / Jordan Peele, Томас Мідлдітч / Thomas Middleditch, Кевін Гарт / Kevin Hart, Нік Кролл / Nick Kroll, Крістен Шаал / Kristen Schaal, Ді Ді Решер / DeeDee Rescher та інші

Сюжет:
Двоє учнів початкової школи загіпнотизували директора школи так, що він став супергероєм, що допомагає їх однокласникам.


Тривалість: 01:28:40
Якість: [Hurtom]
Відео:
кодек:
розмір кадру: 720 х 384
бітрейт: 1894 кб/с

Аудіо # 1:
мова: українська
переклад: професійний дубльований | студія Postmodern
кодек: 5.1
бітрейт: 448 кб/с
Інформація про дубляж
Переклад: Надія Бойван
Режисер дубляжу: Світлана Шекера
Звукорежисер: Денис Подлясський
Менеджер проекту: Ірина Туловська
Ролі дублювали: Андрій Федінчик (Джорж), Роман Чорний (Капітан Підштанько / Круп), Андрій Альохін (Професор Брудноштан), Олександр Погребняк (Гарольд), Павло Скороходько (Мелвін), Катерина Сєргєєва (Едіт), Ольга Радчук (міс Рібл, міс Дейкен, мати)
А також: Вероніка Лук'яненко, Арсен Шавлюк, Іван Кокшайкін, Галина Дубок, Кирило Нікітенко, Сергій Солопай, Матвій Ніколаєв, Людмила Петриченко.

Мікс-студія: Deluxe Media, студія: Postmodern

Info
Код:
General
Complete name               : Captain Underpants. The First Epic Movie (2017) [Ukr] [Hurtom].avi
Format                      : AVI
Format/Info                 : Audio Video Interleave
File size                   : 1.46 GiB
Duration                    : 1 h 28 min
Overall bit rate            : 2 351 kb/s
Writing application         : VirtualDubModUkr 1.5.10.2 (build 2542/release)
Writing library             : VirtualDubMod build 2542/release

Video
ID                          : 0
Format                      : MPEG-4 Visual
Format profile              : Advanced [email protected]
Format settings             : BVOP1
Format settings, BVOP       : 1
Format settings, QPel       : No
Format settings, GMC        : No warppoints
Format settings, Matrix     : Default (MPEG)
Codec ID                    :
Codec ID/Hint               :
Duration                    : 1 h 28 min
Bit rate                    : 1 894 kb/s
Width                       : 720 pixels
Height                      : 384 pixels
Display aspect ratio        : 1.85:1
Frame rate                  : 23.976 (24000/1001) FPS
Color space                 : YUV
Chroma subsampling          : 4:2:0
Bit depth                   : 8 bits
Scan type                   : Progressive
Compression mode            : Lossy
Bits/(Pixel*Frame)          : 0.286
Stream size                 : 1.17 GiB (81%)
Writing library             : 67

Audio
ID                          : 1
Format                      : AC-3
Format/Info                 : Audio Coding 3
Format settings, Endianness : Big
Codec ID                    : 2000
Duration                    : 1 h 28 min
Bit rate mode               : Constant
Bit rate                    : 448 kb/s
Channel(s)                  : 6 channels
Channel positions           : Front: L C R, Side: L R, LFE
Sampling rate               : 48.0 kHz
Frame rate                  : 31.250 FPS (1536 SPF)
Bit depth                   : 16 bits
Compression mode            : Lossy
Stream size                 : 284 MiB (19%)
Alignment                   : Split accross interleaves
Interleave, duration        : 42  ms (1.00 video frame)
Interleave, preload duratio : 500  ms
Service kind                : Complete Main


Джерело:


 Трекер:    Зареєстрований   

Завантажити / скачати мультфільм українською



відео для новачків



 Зареєстрований:   2017-10-12 07:26
 Розмір:   1.46 GB 
 Оцінка мультфільму:   6.5/10 (Голосів: 36)
   
Ваш часовий пояс: GMT + 2 Години

Нова тема   Відповісти