Капітан Підштанько / Captain Underpants: The First Epic Movie (2017) Remux 1080p Ukr/Eng | Sub Ukr/Eng

Нові коментарі

Нова тема   Відповісти
Автор Повідомлення
Anonymous 







2017-10-11 21:33  
Капітан Підштанько / Captain Underpants: The First Epic Movie (2017) Remux Ukr/Eng | Sub Ukr/Eng

Капітан Підштанько / Captain Underpants: The First Epic Movie (2017) Remux 1080p Ukr/Eng | Sub Ukr/Eng


Жанр: анімація, екшн, комедія, сімейний
Країна: США



Кінокомпанія: DreamWorks Animation, Scholastic Productions
Режисер: Девід Сорен / David Soren
Актори: Ед Гелмс / Ed Helms, Джордан Піл / Jordan Peele, Томас Мідлдітч / Thomas Middleditch, Кевін Гарт / Kevin Hart, Нік Кролл / Nick Kroll, Крістен Шаал / Kristen Schaal, Ді Ді Решер / DeeDee Rescher та інші

Сюжет:
Двоє учнів початкової школи загіпнотизували директора школи так, що він став супергероєм, що допомагає їх однокласникам.


Тривалість: 01:28:40
Якість: Remux
Відео:
кодек:
розмір кадру: 1920 х 1080
бітрейт: 27125 кб/с

Аудіо # 1:
мова: українська
переклад: професійний дубльований
кодек: 5.1
бітрейт: 448 кб/с

Аудіо # 2:
мова: англійська
переклад: оригінал
кодек: -HD MA 7.1
бітрейт: 5087 кб/с

Субтитри:
мова: українська
тип: пререндерні
формат: *.pgs

Субтитри:
мова: англійська
тип: пререндерні
формат: *.pgs

Збережено оригінальні розділи, як на Blu-ray
Info
Код:
Complete name               : Captain Underpants The First Epic Movie (2017) [Ukr,Eng sub.Ukr,Eng] Remux 1080p [Hurtom].
Format                      :
Format version              : Version 4 / Version 2
File size                   : 20.2 GiB
Duration                    : 1 h 28 min
Overall bit rate mode       : Variable
Overall bit rate            : 32.7 Mb/s
Cover                       : Yes
Attachments                 : cover.jpg

Video
ID                          : 1
Format                      : AVC
Format/Info                 : Advanced Video Codec
Format profile              : [email protected]
Format settings             : CABAC / 2 Ref Frames
Format settings, CABAC      : Yes
Format settings, RefFrames  : 2 frames
Codec ID                    : V_MPEG4/ISO/AVC
Duration                    : 1 h 28 min
Bit rate mode               : Variable
Bit rate                    : 27.1 Mb/s
Width                       : 1 920 pixels
Height                      : 1 080 pixels
Display aspect ratio        : 16:9
Frame rate mode             : Constant
Frame rate                  : 23.976 (24000/1001) FPS
Color space                 : YUV
Chroma subsampling          : 4:2:0
Bit depth                   : 8 bits
Scan type                   : Progressive
Bits/(Pixel*Frame)          : 0.546
Stream size                 : 16.8 GiB (83%)
Title                       : Капітан Підштанько / Captain Underpants: The First Epic Movie (2017) Ukr/Eng Remux 1080p [Hurtom]
Language                    : English
Default                     : Yes
Forced                      : No

Audio #1
ID                          : 2
Format                      : AC-3
Format/Info                 : Audio Coding 3
Format settings, Endianness : Big
Codec ID                    : A_AC3
Duration                    : 1 h 28 min
Bit rate mode               : Constant
Bit rate                    : 448 kb/s
Channel(s)                  : 6 channels
Channel positions           : Front: L C R, Side: L R, LFE
Sampling rate               : 48.0 kHz
Frame rate                  : 31.250 FPS (1536 SPF)
Bit depth                   : 16 bits
Compression mode            : Lossy
Stream size                 : 284 MiB (1%)
Title                       : Dub [Blu-ray EUR] 5.1 448 Kbps
Language                    : Ukrainian
Service kind                : Complete Main
Default                     : Yes
Forced                      : Yes

Audio #2
ID                          : 3
Format                      :
Format/Info                 : Digital Theater Systems
Format profile              : MA / ES Matrix / Core
Mode                        : 16
Format settings, Endianness : Big
Codec ID                    : A_DTS
Duration                    : 1 h 28 min
Bit rate mode               : Variable / Constant / Constant
Bit rate                    : 5 087 kb/s / 1 509 kb/s / 1 509 kb/s
Channel(s)                  : 8 channels / 7 channels / 6 channels
Channel positions           : Front: L C R, Side: L R, Back: L R, LFE / Front: L C R, Side: L R, Back: C, LFE / Front: L C R, Side: L R, LFE
Sampling rate               : 48.0 kHz
Frame rate                  : 93.750 FPS (512 SPF)
Bit depth                   : 24 bits
Compression mode            : Lossless / Lossy / Lossy
Stream size                 : 3.15 GiB (16%)
Title                       : Original, -HD MA 7.1 5087 Kbps
Language                    : English
Default                     : No
Forced                      : No

Text #1
ID                          : 4
Format                      : PGS
Muxing mode                 : zlib
Codec ID                    : S_HDMV/PGS
Codec ID/Info               : Picture based subtitle format used on BDs/HD-DVDs
Duration                    : 1 h 20 min
Bit rate                    : 48.4 kb/s
Count of elements           : 2912
Stream size                 : 28.0 MiB (0%)
Language                    : English
Default                     : No
Forced                      : No

Text #2
ID                          : 5
Format                      : PGS
Muxing mode                 : zlib
Codec ID                    : S_HDMV/PGS
Codec ID/Info               : Picture based subtitle format used on BDs/HD-DVDs
Duration                    : 1 h 27 min
Bit rate                    : 42.4 kb/s
Count of elements           : 2962
Stream size                 : 26.5 MiB (0%)
Language                    : Ukrainian
Default                     : No
Forced                      : No

Menu
00:00:00.000                : en:Chapter 1
00:03:54.359                : en:Chapter 2
00:06:58.918                : en:Chapter 3
00:10:08.441                : en:Chapter 4
00:12:58.652                : en:Chapter 5
00:15:08.657                : en:Chapter 6
00:17:44.980                : en:Chapter 7
00:20:42.783                : en:Chapter 8
00:23:45.257                : en:Chapter 9
00:25:44.668                : en:Chapter 10
00:29:26.264                : en:Chapter 11
00:33:55.658                : en:Chapter 12
00:38:24.176                : en:Chapter 13
00:42:10.194                : en:Chapter 14
00:46:12.060                : en:Chapter 15
00:52:17.801                : en:Chapter 16
00:55:02.841                : en:Chapter 17
00:57:37.620                : en:Chapter 18
01:00:57.445                : en:Chapter 19
01:04:30.116                : en:Chapter 20
01:08:24.934                : en:Chapter 21
01:11:42.089                : en:Chapter 22
01:15:44.373                : en:Chapter 23
01:19:03.321                : en:Chapter 24


Джерело: &


Золотий реліз (завантажене не впливає на рейтинг)
 Трекер:    Зареєстрований   

Завантажити / скачати мультфільм українською



відео для новачків



 Зареєстрований:   2017-10-12 10:44
 Розмір:   20.25 GB 
 Оцінка мультфільму:   9.8/10 (Голосів: 4)
   
demetrius52 
Свій


З нами з: 02.04.17
Востаннє: 17.10.17
Повідомлень: 58

2017-10-17 16:24  
Anonymous
у релізі пана Electroz є інформація про дубляж

Ваш часовий пояс: GMT + 2 Години

Нова тема   Відповісти