Щоденник слабака 4: Довга дорога (подорож) / Diary of a Wimpy Kid: The Long Haul (2017) | Sub Ukr

Нові коментарі

Нова тема   Відповісти
Автор Повідомлення
Anonymous 







2017-10-11 14:13  
Щоденник слабака 4: Довга дорога / Diary of a Wimpy Kid: The Long Haul (2017) | Sub Ukr

Щоденник слабака 4: Довга дорога (подорож) / Diary of a Wimpy Kid: The Long Haul (2017) | Sub Ukr
Інші обкладинки







Жанр: сімейний, комедія
Країна: США



Кінокомпанія: Twentieth Century Fox Film Corporation, TSG Entertainment, Color Force
Режисер: Девід Баверс / David Bowers
Актори: Джейсон Йєн Дракер / Jason Drucker, Алісія Сільверстоун / Alicia Silverstone, Том Еверетт Скотт / Tom Everett Scott, Чарлі Райт / Charlie Wright, Овен Асталош / Owen Asztalos, Алекса Блер Робертсон / Alexa Blair Robertson, Бет Кінер / Beth Keener, Кортні Лорен Каммінгс / Courtney Lauren Cummings та інші

Сюжет:
Четверта екранізація серії дитячих бестселерів Джеффа Кінні. Пригоди цілеспрямованого та кмітливого, але не надто вдачливого та поступливого школяра Ґрега Гефлі. Непередбачувані неприємності переслідують його не тільки в школі, але навіть під час літнього відпочинку, коли Ґрег вмовляє всю свою сім'ю вирушити на ювілей 90-річної бабусі. Хитрун намагається провернути власний таємний план - потрапити на збіговисько геймерів.


Рейтинг MPAA: PG - рекомендується присутність батьків
Вікова категорія: 6+

Тривалість: 01:31:22
Якість: [Hurtom, джерело - Blu-ray]
Відео:
кодек:
розмір кадру: 720 х 304
бітрейт: 1814 кб/с

Аудіо:
мова: українська
переклад: професійний дубльований | студія Postmodern
кодек: 5.1
бітрейт: 448 кб/с
Інформація про дубляж
Переклад: Надія Бойван
Режисер дубляжу: Павло Скороходько
Звукорежисер: Геннадій Алексєєв
Менеджер проекту: Ірина Туловська
Ролі дублювали: Віктор Григор'єв (Ґрег Гефлі), Катерина Буцька (Сьюзан Гефлі), Михайло Войчук (Френк Гефлі), Дмитро Рассказов (Родрік Гефлі), Сергій Солопай (Бородатко), Володимир Плахов (Мак Діґбі), Єгор Скороходько (Менні), Тимофій Кравець (Роулі), Галина Дубок (Бренді), Світлана Штанько (Бородамка) та інші.

Мікс-студія DeLuxe Media, студія Postmodern
Субтитри:
мова: українська (завантажити окремо: форсовані, повні)
тип: програмні (м'які)
формат: *.srt
Info
Код:
Format                      : AVI
Format/Info                 : Audio Video Interleave
File size                   : 1.45 GiB
Duration                    : 1 h 31 min
Overall bit rate            : 2 271 kb/s
Writing application         : VirtualDubModUkr 1.5.10.2 (build 2542/release)
Writing library             : VirtualDubMod build 2542/release

Video
ID                          : 0
Format                      : MPEG-4 Visual
Format profile              : Advanced [email protected]
Format settings             : BVOP1
Format settings, BVOP       : 1
Format settings, QPel       : No
Format settings, GMC        : No warppoints
Format settings, Matrix     : Default (MPEG)
Codec ID                    :
Codec ID/Hint               :
Duration                    : 1 h 31 min
Bit rate                    : 1 814 kb/s
Width                       : 720 pixels
Height                      : 304 pixels
Display aspect ratio        : 2.35:1
Frame rate                  : 23.976 (24000/1001) FPS
Color space                 : YUV
Chroma subsampling          : 4:2:0
Bit depth                   : 8 bits
Scan type                   : Progressive
Compression mode            : Lossy
Bits/(Pixel*Frame)          : 0.346
Stream size                 : 1.16 GiB (80%)
Writing library             : 67

Audio
ID                          : 1
Format                      : AC-3
Format/Info                 : Audio Coding 3
Format settings, Endianness : Big
Codec ID                    : 2000
Duration                    : 1 h 31 min
Bit rate mode               : Constant
Bit rate                    : 448 kb/s
Channel(s)                  : 6 channels
Channel positions           : Front: L C R, Side: L R, LFE
Sampling rate               : 48.0 kHz
Frame rate                  : 31.250 FPS (1536 SPF)
Bit depth                   : 16 bits
Compression mode            : Lossy
Stream size                 : 293 MiB (20%)
Alignment                   : Split accross interleaves
Interleave, duration        : 42  ms (1.00 video frame)
Interleave, preload duratio : 500  ms
Service kind                : Complete Main


Джерело:



 Трекер:    Зареєстрований   

Завантажити / скачати фільм українською



відео для новачків



 Зареєстрований:   2017-10-11 15:44
 Розмір:   1.45 GB 
 Оцінка фільму:   5/10 (Голосів: 21)
   
Anonymous 







2017-10-11 22:35  
також оновлено до квадрології 720p : https://toloka.to/t72595
Electroz 
Відео Гуртом - підтримка та поширення
Відео Гуртом - підтримка та поширення


З нами з: 18.09.14
Востаннє: 14.12.17
Повідомлень: 2008

2017-11-06 23:23  
Інформація про дубляж

Ваш часовий пояс: GMT + 2 Години

Нова тема   Відповісти