Хто є хто / Поліцейський чи негідник / Flic ou voyou (1979) AVC 2xUkr/Fra

Нові коментарі

Нова тема   Відповісти
Автор Повідомлення
Anonymous 







2017-10-10 15:07  
Хто є хто / Поліцейський чи негідник / Flic ou voyou (1979) AVC 2xUkr/Fra

Хто є хто / Поліцейський чи негідник / Flic ou voyou (1979) AVC 2xUkr/Fra


Жанр: бойовик, комедія, кримінальний
Країна: Франція



Кінокомпанія: Cerito Films, Gaumont International
Режисер: Жорж Лотнер
Актори: Жан-Поль Бельмондо, Жорж Жере, Жан-Франсуа Бальме, Клод Бросе, Жюлі Жезекель, Мішель Бон

Сюжет:
Після того як у Ніцці при загадкових обставинах був убитий поліцейський-комісар, туди виїжджає з Парижа інспектор з відділу по нагляду за поліцією, щоб розкрити корупцію, що панує серед поліції міста. Але методи його роботи змушують дивуватися, кого він більше нагадує? Невимушений і звабливий, він спритно володіє кулаками, але далекий від серцевих поривів.


Тривалість: 01:47:05
Якість:
Відео:
кодек:
розмір кадру: 928x560
бітрейт: 2913 кб/с

Аудіо # 1:
мова: українська
переклад: багатоголосий закадровий
кодек: 2.0
бітрейт: 192 кб/с

Аудіо # 2:
мова: українська
переклад: багатоголосий закадровий
кодек: 2.0
бітрейт: 224 кб/с

Аудіо # 3:
мова: французька
переклад: оригінал
кодек: 2.0
бітрейт: 224 кб/с

Cкріншоти






Медіаінфо
General
Unique ID : 189855814339797422032022294926945625248 (0x8ED4E658FC2B86EE8F304C430E2324A0)
Complete name : E:\Flic ou voyou (1979) [2xUkr,Fra] AVC [Hurtom].
Format :
Format version : Version 4 / Version 2
File size : 2.71 GiB
Duration : 1h 47mn
Overall bit rate : 3 625 Kbps
Movie name : Flic.ou.voyou.1979.AVC.kvvk_2009.
Encoded date : UTC 2017-10-10 11:58:20
Writing application : mkvmerge v8.8.0 ('Wind at my back') 64bit
Writing library : libebml v1.3.3 + libmatroska v1.4.4
DURATION : 01:47:05.408000000
NUMBER_OF_FRAMES : 200794
NUMBER_OF_BYTES : 179911424
_STATISTICS_WRITING_APP : mkvmerge v8.8.0 ('Wind at my back') 64bit
_STATISTICS_WRITING_DATE_UTC : 2017-10-10 11:58:20
_STATISTICS_TAGS : BPS DURATION NUMBER_OF_FRAMES NUMBER_OF_BYTES

Video
ID : 1
Format : AVC
Format/Info : Advanced Video Codec
Format profile : [email protected]
Format settings, CABAC : Yes
Format settings, ReFrames : 8 frames
Codec ID : V_MPEG4/ISO/AVC
Duration : 1h 47mn
Bit rate : 2 913 Kbps
Width : 928 pixels
Height : 560 pixels
Display aspect ratio : 5:3
Frame rate mode : Constant
Frame rate : 23.976 fps
Color space : YUV
Chroma subsampling : 4:2:0
Bit depth : 8 bits
Scan type : Progressive
Bits/(Pixel*Frame) : 0.234
Stream size : 2.18 GiB (80%)
Writing library : core 142 r2431 ac76440
Encoding settings : cabac=1 / ref=8 / deblock=1:-2:-2 / analyse=0x3:0x113 / me=umh / subme=11 / psy=1 / psy_rd=1.00:0.10 / mixed_ref=1 / me_range=48 / chroma_me=1 / trellis=2 / 8x8dct=1 / cqm=0 / deadzone=21,11 / fast_pskip=0 / chroma_qp_offset=-3 / threads=6 / lookahead_threads=1 / sliced_threads=0 / nr=0 / decimate=0 / interlaced=0 / bluray_compat=0 / constrained_intra=0 / bframes=10 / b_pyramid=2 / b_adapt=2 / b_bias=0 / direct=3 / weightb=1 / open_gop=0 / weightp=2 / keyint=230 / keyint_min=23 / scenecut=40 / intra_refresh=0 / rc_lookahead=50 / rc=crf / mbtree=0 / crf=17.0 / qcomp=0.60 / qpmin=0 / qpmax=51 / qpstep=4 / vbv_maxrate=50000 / vbv_bufsize=62500 / crf_max=0.0 / nal_hrd=none / filler=0 / ip_ratio=1.40 / pb_ratio=1.30 / aq=1:0.90
Language : English
Default : No
Forced : No
DURATION : 01:47:05.419000000
NUMBER_OF_FRAMES : 154056
NUMBER_OF_BYTES : 2395919896
_STATISTICS_WRITING_APP : mkvmerge v8.8.0 ('Wind at my back') 64bit
_STATISTICS_WRITING_DATE_UTC : 2017-10-10 11:58:20
_STATISTICS_TAGS : BPS DURATION NUMBER_OF_FRAMES NUMBER_OF_BYTES

Audio #1
ID : 2
Format : AC-3
Format/Info : Audio Coding 3
Mode extension : CM (complete main)
Format settings, Endianness : Big
Codec ID : A_AC3
Duration : 1h 47mn
Bit rate mode : Constant
Bit rate : 192 Kbps
Channel(s) : 2 channels
Channel positions : Front: L R
Sampling rate : 48.0 KHz
Bit depth : 16 bits
Compression mode : Lossy
Stream size : 147 MiB (5%)
Title : Ентер- Фільм
Default : Yes
Forced : Yes

Audio #2
ID : 3
Format : AC-3
Format/Info : Audio Coding 3
Mode extension : CM (complete main)
Format settings, Endianness : Big
Codec ID : A_AC3
Duration : 1h 47mn
Bit rate mode : Constant
Bit rate : 224 Kbps
Channel(s) : 2 channels
Channel positions : Front: L R
Sampling rate : 48.0 KHz
Bit depth : 16 bits
Compression mode : Lossy
Stream size : 172 MiB (6%)
Title : 1+1
Default : No
Forced : No

Audio #3
ID : 4
Format : AC-3
Format/Info : Audio Coding 3
Mode extension : CM (complete main)
Format settings, Endianness : Big
Codec ID : A_AC3
Duration : 1h 47mn
Bit rate mode : Constant
Bit rate : 224 Kbps
Channel(s) : 2 channels
Channel positions : Front: L R
Sampling rate : 48.0 KHz
Bit depth : 16 bits
Compression mode : Lossy
Stream size : 172 MiB (6%)
Title : Оригінал
Default : No
Forced : No

Menu
00:00:00.000 : :00:00:00.000
00:04:20.927 : :00:04:20.927
00:16:47.965 : :00:16:47.965
00:22:11.747 : :00:22:11.747
00:32:36.454 : :00:32:36.454
00:44:11.482 : :00:44:11.482
00:51:07.731 : :00:51:07.731
01:01:13.086 : :01:01:13.086
01:11:17.481 : :01:11:17.481
01:20:08.553 : :01:20:08.553
01:29:52.095 : :01:29:52.095
01:37:46.777 : :01:37:46.777
Подяки:За запис з Enter пану РОМЕО. Пану rooster за доріжку від 1+1. Пану Arsenfpu за синхронізацію. Пану ilitbr за постер часів УРСР.

Джерело:
Особиста оцінка: 10 - без зайвих вагань рекомендую всім!


 Трекер:    Зареєстрований   

Завантажити / скачати фільм українською



відео для новачків



 Зареєстрований:   2017-10-10 15:07
 Розмір:   2.71 GB 
 Оцінка фільму:   3.6/10 (Голосів: 14)
   
Ваш часовий пояс: GMT + 2 Години

Нова тема   Відповісти