Мій хлопець – кілер (Вбивчий бойфренд | Містер Правильний | Містер Ідеал) / Mr. Right (2015) 1080p 2xUkr/Eng | Sub Eng

Нові коментарі

Нова тема   Відповісти
Автор Повідомлення
Argentum 
VIP


З нами з: 25.09.11
Востаннє: 17.01.21
Повідомлень: 274

2017-10-09 17:29  
Мій хлопець – кілер / Вбивчий бойфренд / Містер Правильний / Містер Ідеал / Mr. Right (2015) 1080p 2xUkr/Eng | Sub Eng

Мій хлопець – кілер (Вбивчий бойфренд | Містер Правильний | Містер Ідеал) / Mr. Right (2015) 1080p 2xUkr/Eng | Sub Eng


Жанр: комедія, екшн, романтичний
Країна: США



Кінокомпанія: Amasia Entertainment, 3311 Productions, Circle of Confusion
Режисер: Пако Кабесас / Paco Cabezas
Актори: Сем Роквелл, Анна Кендрік, Тім Рот, Джеймс Ренсон, Енсон Маунт, Майкл Еклунд, Роберт Діггс, Кеті Нехра, Джейден Кейн, Дуґлас М. Ґріффін та інші

Сюжет:
Марта відчайдушно намагається знайти свою любов, але з хлопцями їй зовсім не щастить. Та коли дівчина зустрічає Френсіса, вона впевнена що кращого хлопця годі й шукати. Уважний, романтичний і сексуальний Френсіс насправді виявляється кілером, який вирішив зав'язати зі своєю професією. Але чи так це легко, як йому хотілося б? Френсіс і Марта нерозлучні, тож ховатися від охочих вбити екс-кілера їм доведеться вдвох.


Тривалість: 01:35:29
Якість:
Відео:
кодек:
розмір кадру: 1920 х 804
бітрейт: 10000 кб/с

Аудіо # 1:
мова: українська
переклад: багатоголосий закадровий
кодек: 2.0
бітрейт: 192 кб/с

Аудіо # 2:
мова: українська
переклад: багатоголосий закадровий
кодек: 2.0
бітрейт: 192 кб/с

Аудіо # 3:
мова: англійська
переклад: оригінал
кодек: 5.1
бітрейт: 640 кб/с

Субтитри :
мова: англійська
тип: програмні (м'які)
формат: *.srt
Info
General
Unique ID : 50904647432839638080284236726164125969 (0x264BE0E40FAC3314BA77D81AF021F911)
Complete name : Mr.Right.2015..1080p.Ukr.Eng.Hurtom.
Format :
Format version : Version 4
File size : 7.35 GiB
Duration : 1 h 35 min
Overall bit rate : 11.0 Mb/s
Movie name : Mr. Right (2015)
Encoded date : UTC 2020-12-29 16:01:36
Writing application : v51.0.0 ('I Wish') 64-bit
Writing library : libebml v1.4.0 + v1.6.2
Cover : Yes
Attachments : cover.jpg

Video
ID : 1
Format : AVC
Format/Info : Advanced Video Codec
Format profile : [email protected]
Format settings : CABAC / 5 Ref Frames
Format settings, CABAC : Yes
Format settings, Reference : 5 frames
Codec ID : V_MPEG4/ISO/AVC
Duration : 1 h 35 min
Bit rate : 10 000 kb/s
Width : 1 920 pixels
Height : 804 pixels
Display aspect ratio : 2.40:1
Frame rate mode : Constant
Frame rate : 23.976 (24000/1001) FPS
Color space : YUV
Chroma subsampling : 4:2:0
Bit depth : 8 bits
Scan type : Progressive
Bits/(Pixel*Frame) : 0.270
Stream size : 6.67 GiB (91%)
Title : AVC 1920*804 @ 10 000 kb/s
Writing library : core 148 r2795 aaa9aa8
Encoding settings : cabac=1 / ref=5 / deblock=1:-3:-3 / analyse=0x3:0x133 / me=umh / subme=10 / psy=1 / psy_rd=1,00:10,00 / mixed_ref=1 / me_range=32 / chroma_me=1 / trellis=2 / 8x8dct=1 / cqm=0 / deadzone=21,11 / fast_pskip=0 / chroma_qp_offset=-4 / threads=12 / lookahead_threads=2 / sliced_threads=0 / nr=0 / decimate=1 / interlaced=0 / bluray_compat=0 / constrained_intra=0 / bframes=8 / b_pyramid=2 / b_adapt=2 / b_bias=0 / direct=3 / weightb=1 / open_gop=0 / weightp=2 / keyint=240 / keyint_min=24 / scenecut=40 / intra_refresh=0 / rc_lookahead=40 / rc=2pass / mbtree=1 / bitrate=10000 / ratetol=1,0 / qcomp=0,60 / qpmin=0 / qpmax=69 / qpstep=4 / cplxblur=20,0 / qblur=0,5 / vbv_maxrate=62500 / vbv_bufsize=78125 / nal_hrd=none / filler=0 / ip_ratio=1,40 / aq=1:1,00
Language : Multiple languages
Default : Yes
Forced : Yes
Color range : Limited
Color primaries : BT.709
Transfer characteristics : BT.709
Matrix coefficients : BT.709

Audio #1
ID : 2
Format : AC-3
Format/Info : Audio Coding 3
Commercial name : Dolby Digital
Codec ID : A_AC3
Duration : 1 h 35 min
Bit rate mode : Constant
Bit rate : 192 kb/s
Channel(s) : 2 channels
Channel layout : L R
Sampling rate : 48.0 kHz
Frame rate : 31.250 FPS (1536 SPF)
Compression mode : Lossy
Stream size : 131 MiB (2%)
Title : AC-3 2.0 @ 192 kb/s # K1
Language : Ukrainian
Service kind : Complete Main
Default : Yes
Forced : Yes

Audio #2
ID : 3
Format : AC-3
Format/Info : Audio Coding 3
Commercial name : Dolby Digital
Codec ID : A_AC3
Duration : 1 h 35 min
Bit rate mode : Constant
Bit rate : 192 kb/s
Channel(s) : 2 channels
Channel layout : L R
Sampling rate : 48.0 kHz
Frame rate : 31.250 FPS (1536 SPF)
Compression mode : Lossy
Stream size : 131 MiB (2%)
Title : AC-3 2.0 @ 192 kb/s # ICTV
Language : Ukrainian
Service kind : Complete Main
Default : No
Forced : No

Audio #3
ID : 4
Format : AC-3
Format/Info : Audio Coding 3
Commercial name : Dolby Digital
Codec ID : A_AC3
Duration : 1 h 35 min
Bit rate mode : Constant
Bit rate : 640 kb/s
Channel(s) : 6 channels
Channel layout : L R C LFE Ls Rs
Sampling rate : 48.0 kHz
Frame rate : 31.250 FPS (1536 SPF)
Compression mode : Lossy
Stream size : 437 MiB (6%)
Title : AC-3 5.1 @ 640 kb/s
Language : English
Service kind : Complete Main
Default : No
Forced : No

Text
ID : 5
Format : UTF-8
Codec ID : S_TEXT/UTF8
Codec ID/Info : UTF-8 Plain Text
Duration : 1 h 32 min
Bit rate : 81 b/s
Count of elements : 1729
Stream size : 55.5 KiB (0%)
Title : Full
Language : English
Default : No
Forced : No
Скріншоти




Доріжка від К1 подяка панам Bohdan237 за запис з ТБ, igor911 - за синхронізацію.
Доріжка від ICTV - подяка панам slavik_v_z - за запис звуку з ТБ, Gelios - за синхронізацію.
За постер подяка пану - Gelios.

Джерело: &
Особиста оцінка: 8 - мені сподобалося


 Трекер:    Зареєстрований   

Завантажити / скачати фільм українською



відео для новачків



 Зареєстрований:   2020-12-29 18:27
 Розмір:   7.35 GB 
 Оцінка фільму:   9.5/10 (Голосів: 14)
   
11FrYkT 
Модератор відео


З нами з: 20.02.11
Востаннє: 17.01.21
Повідомлень: 7101

2017-10-12 11:36  
Argentum написано:

Аудіо # 2:
мова: англійська
переклад: оригінал
кодек: -HD 5.1
бітрейт: 3840 кб/с


надалі такі доріжки додаються в ремукси і вище. Врахуйте в подальших релізах

Argentum 
VIP


З нами з: 25.09.11
Востаннє: 17.01.21
Повідомлень: 274

2017-10-12 13:07  
11FrYkT написано:
надалі такі доріжки додаються в ремукси і вище. Врахуйте в подальших релізах

Дякую, обов'язково врахую

Argentum 
VIP


З нами з: 25.09.11
Востаннє: 17.01.21
Повідомлень: 274

2020-12-29 18:40  
Реліз оновлено. Додано доріжку українською від К1. Прохання перезавантажити торрент.

Ваш часовий пояс: GMT + 2 Години

Нова тема   Відповісти