Незаймані самогубці / The Virgin Suicides (1999) AVC Ukr/Eng

Нові коментарі

Нова тема   Відповісти
Автор Повідомлення
motoko 
Новенький


З нами з: 04.09.17
Востаннє: 22.11.17
Повідомлень: 5

2017-10-09 10:17  
Незаймані самогубці / The Virgin Suicides (1999) AVC Ukr/Eng

Незаймані самогубці / The Virgin Suicides (1999) AVC Ukr/Eng


Жанр: драма, мелодрама
Країна: США



Кінокомпанія: American Zoetrope, Eternity Pictures, Muse Productions
Режисер: Софія Коппола / Sofia Coppola
Актори: Джеймс Вудс / James Woods, Кетлін Тернер / Kathleen Turner, Кірстен Данст / Kirsten Dunst, Джош Гартнет / Josh Hartnett, Майкл Паре / Michael Pare, Скот Ґленн / Scott Glenn, Денні ДеВіто / Danny DeVito, Ей Джей Кук / AJ Cook, Ганна Галл / Hanna Hall, Леслі Гайман / Leslie Hayman

Сюжет:
70-і роки, маленьке містечко в американській провінції. В сім'ї Лісбон п'ять дочок-підлітків. Після того, як 13-річна Сесілія кінчає життя самогубством, її сестри, що залишилися в живих, стають об'єктом пильної уваги всіх жителів містечка, особливо сусідських хлопців, що влаштували за дівчатками справжнє стеження. Бажаючи захистити доньок від оточуючих, батьки поступово припиняють усіляке спілкування із зовнішнім світом і забороняють донькам виходити з будинку, що спричиняє за собою трагічний кінець...


Тривалість: 01:36:45
Якість:
Відео:
кодек:
розмір кадру: 1152 х 648
бітрейт: 4394 кб/с

Аудіо # 1:
мова: українська
переклад: багатоголосий закадровий
кодек: 2.0
бітрейт: 192 кб/с

Джерело озвучення:


Аудіо # 2:
мова: англійська
переклад: оригінал
кодек: 5.1
бітрейт: 448 кб/с
Info
General
Unique ID : 199014267476030915940238472211360551318 (0x95B8C0F316AF589298806780CE029196)
Complete name : E:\films\The Virgin Suicides.1999..Hurtom.
Format :
Format version : Version 2
File size : 3.47 GiB
Duration : 1h 36mn
Overall bit rate : 5 136 Kbps
Encoded date : UTC 2017-09-29 18:51:04
Writing application : mkvmerge v5.6.0 ('Kenya Kane') built on May 27 2012 16:44:04
Writing library : libebml v1.2.3 + libmatroska v1.3.0
Attachements : cover.png

Video
ID : 1
Format : AVC
Format/Info : Advanced Video Codec
Format profile : [email protected]
Format settings, CABAC : Yes
Format settings, ReFrames : 15 frames
Codec ID : V_MPEG4/ISO/AVC
Duration : 1h 36mn
Bit rate : 4 394 Kbps
Width : 1 152 pixels
Height : 648 pixels
Display aspect ratio : 16:9
Frame rate mode : Constant
Frame rate : 23.976 fps
Color space : YUV
Chroma subsampling : 4:2:0
Bit depth : 8 bits
Scan type : Progressive
Bits/(Pixel*Frame) : 0.246
Stream size : 2.97 GiB (86%)
Title : eFK
Writing library : core 142 r2431kMod ac76440
Encoding settings : cabac=1 / ref=15 / deblock=1:-3:-2 / analyse=0x3:0x133 / me=umh / subme=11 / psy=1 / fade_compensate=0.00 / psy_rd=1.05:0.05 / mixed_ref=1 / me_range=48 / chroma_me=1 / trellis=2 / 8x8dct=1 / cqm=0 / deadzone=21,11 / fast_pskip=1 / chroma_qp_offset=-3 / threads=8 / lookahead_threads=2 / sliced_threads=0 / nr=0 / decimate=1 / interlaced=0 / bluray_compat=0 / constrained_intra=0 / fgo=0 / bframes=11 / b_pyramid=2 / b_adapt=2 / b_bias=0 / direct=3 / weightb=1 / open_gop=0 / weightp=2 / keyint=240 / keyint_min=23 / scenecut=40 / intra_refresh=0 / rc_lookahead=60 / rc=crf / mbtree=0 / crf=18.9250 / qcomp=0.60 / qpmin=0 / qpmax=69 / qpstep=4 / vbv_maxrate=50000 / vbv_bufsize=62500 / crf_max=0.0 / nal_hrd=none / filler=0 / ip_ratio=1.40 / pb_ratio=1.30 / aq=3:0.75
Default : Yes
Forced : No

Audio #1
ID : 2
Format : AC-3
Format/Info : Audio Coding 3
Mode extension : CM (complete main)
Format settings, Endianness : Big
Codec ID : A_AC3
Duration : 1h 36mn
Bit rate mode : Constant
Bit rate : 192 Kbps
Channel(s) : 2 channels
Channel positions : Front: L R
Sampling rate : 48.0 KHz
Compression mode : Lossy
Stream size : 133 MiB (4%)
Language : Ukrainian
Default : Yes
Forced : No

Audio #2
ID : 3
Format : AC-3
Format/Info : Audio Coding 3
Mode extension : CM (complete main)
Format settings, Endianness : Big
Codec ID : A_AC3
Duration : 1h 36mn
Bit rate mode : Constant
Bit rate : 448 Kbps
Channel(s) : 6 channels
Channel positions : Front: L C R, Side: L R, LFE
Sampling rate : 48.0 KHz
Compression mode : Lossy
Stream size : 310 MiB (9%)
Title : Original (English)
Language : English
Default : No
Forced : No

Text
ID : 4
Format : UTF-8
Codec ID : S_TEXT/UTF8
Codec ID/Info : UTF-8 Plain Text
Title : English (full)
Language : English
Default : No
Forced : No

Menu
00:00:00.000 : en:00:00:00.000
00:05:51.268 : en:00:05:51.268
00:11:23.266 : en:00:11:23.266
00:17:20.998 : en:00:17:20.998
00:22:53.789 : en:00:22:53.789
00:26:56.949 : en:00:26:56.949
00:31:22.089 : en:00:31:22.089
00:37:38.173 : en:00:37:38.173
00:45:54.335 : en:00:45:54.335
00:49:51.113 : en:00:49:51.113
01:00:53.400 : en:01:00:53.400
01:06:12.969 : en:01:06:12.969
01:10:22.760 : en:01:10:22.760
01:16:07.438 : en:01:16:07.438
01:20:05.634 : en:01:20:05.634
01:25:10.605 : en:01:25:10.605
01:31:09.381 : en:01:31:09.381
Скріншоти
Особиста оцінка: 8 - мені сподобалося

Подяка п. karvai0 за надану звукову доріжку


Срібний реліз (на рейтинг впливає 50% завантаженого)
 Трекер:    Зареєстрований   

Завантажити / скачати фільм українською



відео для новачків



 Зареєстрований:   2017-10-09 10:17
 Розмір:   3.47 GB 
 Оцінка фільму:   8.5/10 (Голосів: 6)
   
Інші релізи
bot 
робот


З нами з: 30.09.07
Востаннє: 26.05.05
Повідомлень: 17891

2017-10-09 10:44  
Тему перенесено з Фільми в HD до форуму Фільми


igor911

raw977 
Новенький


З нами з: 13.11.11
Востаннє: 12.12.17
Повідомлень: 10

2017-10-11 12:32  
кінчає???(шо то порнуха) чи можливо все таки покінчила.
hetzendorf 
Відео Гуртом - підтримка та поширення
Відео Гуртом - підтримка та поширення


З нами з: 23.07.15
Востаннє: 14.12.17
Повідомлень: 638

2017-10-16 22:42  
За що рейтинг 7, блінський блін?! Замість розкриття теми та ідеї година й 40 хвилин якісь теревені ні про що, навкруги та навколо, нісенітниця й тупа нудятина @[email protected] Крім того,
одна самогубця таки займана
O_o Не витрачайте часу на перегляд, як це сталося зі мною >_<
2/10

Ваш часовий пояс: GMT + 2 Години

Нова тема   Відповісти